999
dxfrw 0.5.10
0
SECTION
2
HEADER
9
$ACADVER
1
AC1021
9
$HANDSEED
5
20000
9
$DWGCODEPAGE
3
ANSI_1252
9
$INSBASE
10
0
20
0
30
0
9
$EXTMIN
10
-29.625
20
-30.75
30
0
9
$EXTMAX
10
430.75
20
436.125
30
0
9
$LIMMIN
10
0
20
0
9
$LIMMAX
10
420
20
297
9
$ORTHOMODE
70
0
9
$LTSCALE
40
1
9
$TEXTSTYLE
7
STANDARD
9
$CLAYER
8
0
9
$DIMASZ
40
2.5
9
$DIMLFAC
40
1
9
$DIMSCALE
40
1
9
$DIMEXO
40
0.625
9
$DIMEXE
40
1.25
9
$DIMTXT
40
2.5
9
$DIMTSZ
40
0
9
$DIMAUNIT
70
0
9
$DIMADEC
70
2
9
$DIMLUNIT
70
2
9
$DIMSTYLE
2
STANDARD
9
$DIMGAP
40
0.625
9
$DIMTIH
70
0
9
$LUNITS
70
2
9
$LUPREC
70
4
9
$AUNITS
70
0
9
$AUPREC
70
2
9
$SPLINESEGS
70
8
9
$GRIDMODE
70
1
9
$SNAPSTYLE
70
0
9
$GRIDUNIT
10
0.5
20
0.5
9
$PINSBASE
10
0
20
0
30
0
9
$PLIMMIN
10
0
20
0
9
$PLIMMAX
10
400
20
400
9
$INSUNITS
70
4
9
$PSVPSCALE
40
1
0
ENDSEC
0
SECTION
2
CLASSES
0
ENDSEC
0
SECTION
2
TABLES
0
TABLE
2
VPORT
5
8
330
0
100
AcDbSymbolTable
70
1
0
VPORT
5
31
330
2
100
AcDbSymbolTableRecord
100
AcDbViewportTableRecord
2
*ACTIVE
70
0
10
0
20
0
11
1
21
1
12
342.407226563
22
218.505859375
13
0
23
0
14
10
24
10
15
0.5
25
0.5
16
0
26
0
36
1
17
0
27
0
37
0
40
465.698242188
41
2.05766710354
42
50
43
0
44
0
50
0
51
0
71
0
72
100
73
1
74
3
75
0
76
1
77
0
78
0
281
0
65
1
110
0
120
0
130
0
111
1
121
0
131
0
112
0
122
1
132
0
79
0
146
0
348
10020
60
3
61
5
292
1
282
1
141
0
142
0
63
250
421
3358443
0
ENDTAB
0
TABLE
2
LTYPE
5
5
330
0
100
AcDbSymbolTable
70
4
0
LTYPE
5
14
330
5
100
AcDbSymbolTableRecord
100
AcDbLinetypeTableRecord
2
ByBlock
70
0
3

72
65
73
0
40
0
0
LTYPE
5
15
330
5
100
AcDbSymbolTableRecord
100
AcDbLinetypeTableRecord
2
ByLayer
70
0
3

72
65
73
0
40
0
0
LTYPE
5
16
330
5
100
AcDbSymbolTableRecord
100
AcDbLinetypeTableRecord
2
Continuous
70
0
3
Solid line
72
65
73
0
40
0
0
LTYPE
5
32
330
5
100
AcDbSymbolTableRecord
100
AcDbLinetypeTableRecord
2
DOT
70
0
3
Dot . . . . . . . . . . . . . . . . . . . . . .
72
65
73
2
40
6.35
49
0
74
0
49
-6.35
74
0
0
LTYPE
5
33
330
5
100
AcDbSymbolTableRecord
100
AcDbLinetypeTableRecord
2
DOT2
70
0
3
Dot (.5x) .....................................
72
65
73
2
40
3.175
49
0
74
0
49
-3.175
74
0
0
LTYPE
5
34
330
5
100
AcDbSymbolTableRecord
100
AcDbLinetypeTableRecord
2
DOTX2
70
0
3
Dot (2x) .  .  .  .  .  .  .  .  .  .  .  .  .
72
65
73
2
40
12.7
49
0
74
0
49
-12.7
74
0
0
LTYPE
5
35
330
5
100
AcDbSymbolTableRecord
100
AcDbLinetypeTableRecord
2
DASHED
70
0
3
Dot . . . . . . . . . . . . . . . . . . . . . .
72
65
73
2
40
19.05
49
12.7
74
0
49
-6.35
74
0
0
LTYPE
5
36
330
5
100
AcDbSymbolTableRecord
100
AcDbLinetypeTableRecord
2
DASHED2
70
0
3
Dashed (.5x) _ _ _ _ _ _ _ _ _ _ _ _ _ _ _ _ _
72
65
73
2
40
9.525
49
6.35
74
0
49
-3.175
74
0
0
LTYPE
5
37
330
5
100
AcDbSymbolTableRecord
100
AcDbLinetypeTableRecord
2
DASHEDX2
70
0
3
Dashed (2x) ____  ____  ____  ____  ____  ___
72
65
73
2
40
38.1
49
25.4
74
0
49
-12.7
74
0
0
LTYPE
5
38
330
5
100
AcDbSymbolTableRecord
100
AcDbLinetypeTableRecord
2
DASHDOT
70
0
3
Dash dot __ . __ . __ . __ . __ . __ . __ . __
72
65
73
4
40
25.4
49
12.7
74
0
49
-6.35
74
0
49
0
74
0
49
-6.35
74
0
0
LTYPE
5
39
330
5
100
AcDbSymbolTableRecord
100
AcDbLinetypeTableRecord
2
DASHDOT2
70
0
3
Dash dot (.5x) _._._._._._._._._._._._._._._.
72
65
73
4
40
12.7
49
6.35
74
0
49
-3.175
74
0
49
0
74
0
49
-3.175
74
0
0
LTYPE
5
3A
330
5
100
AcDbSymbolTableRecord
100
AcDbLinetypeTableRecord
2
DASHDOTX2
70
0
3
Dash dot (2x) ____  .  ____  .  ____  .  ___
72
65
73
4
40
50.8
49
25.4
74
0
49
-12.7
74
0
49
0
74
0
49
-12.7
74
0
0
LTYPE
5
3B
330
5
100
AcDbSymbolTableRecord
100
AcDbLinetypeTableRecord
2
DIVIDE
70
0
3
Divide ____ . . ____ . . ____ . . ____ . . ____
72
65
73
6
40
31.75
49
12.7
74
0
49
-6.35
74
0
49
0
74
0
49
-6.35
74
0
49
0
74
0
49
-6.35
74
0
0
LTYPE
5
3C
330
5
100
AcDbSymbolTableRecord
100
AcDbLinetypeTableRecord
2
DIVIDE2
70
0
3
Divide (.5x) __..__..__..__..__..__..__..__.._
72
65
73
6
40
15.875
49
6.35
74
0
49
-3.175
74
0
49
0
74
0
49
-3.175
74
0
49
0
74
0
49
-3.175
74
0
0
LTYPE
5
3D
330
5
100
AcDbSymbolTableRecord
100
AcDbLinetypeTableRecord
2
DIVIDEX2
70
0
3
Divide (2x) ________  .  .  ________  .  .  _
72
65
73
6
40
63.5
49
25.4
74
0
49
-12.7
74
0
49
0
74
0
49
-12.7
74
0
49
0
74
0
49
-12.7
74
0
0
LTYPE
5
3E
330
5
100
AcDbSymbolTableRecord
100
AcDbLinetypeTableRecord
2
BORDER
70
0
3
Border __ __ . __ __ . __ __ . __ __ . __ __ .
72
65
73
6
40
44.45
49
12.7
74
0
49
-6.35
74
0
49
12.7
74
0
49
-6.35
74
0
49
0
74
0
49
-6.35
74
0
0
LTYPE
5
3F
330
5
100
AcDbSymbolTableRecord
100
AcDbLinetypeTableRecord
2
BORDER2
70
0
3
Border (.5x) __.__.__.__.__.__.__.__.__.__.__.
72
65
73
6
40
22.225
49
6.35
74
0
49
-3.175
74
0
49
6.35
74
0
49
-3.175
74
0
49
0
74
0
49
-3.175
74
0
0
LTYPE
5
40
330
5
100
AcDbSymbolTableRecord
100
AcDbLinetypeTableRecord
2
BORDERX2
70
0
3
Border (2x) ____  ____  .  ____  ____  .  ___
72
65
73
6
40
88.9
49
25.4
74
0
49
-12.7
74
0
49
25.4
74
0
49
-12.7
74
0
49
0
74
0
49
-12.7
74
0
0
LTYPE
5
41
330
5
100
AcDbSymbolTableRecord
100
AcDbLinetypeTableRecord
2
CENTER
70
0
3
Center ____ _ ____ _ ____ _ ____ _ ____ _ ____
72
65
73
4
40
50.8
49
31.75
74
0
49
-6.35
74
0
49
6.35
74
0
49
-6.35
74
0
0
LTYPE
5
42
330
5
100
AcDbSymbolTableRecord
100
AcDbLinetypeTableRecord
2
CENTER2
70
0
3
Center (.5x) ___ _ ___ _ ___ _ ___ _ ___ _ ___
72
65
73
4
40
28.575
49
19.05
74
0
49
-3.175
74
0
49
3.175
74
0
49
-3.175
74
0
0
LTYPE
5
43
330
5
100
AcDbSymbolTableRecord
100
AcDbLinetypeTableRecord
2
CENTERX2
70
0
3
Center (2x) ________  __  ________  __  _____
72
65
73
4
40
101.6
49
63.5
74
0
49
-12.7
74
0
49
12.7
74
0
49
-12.7
74
0
0
ENDTAB
0
TABLE
2
LAYER
5
2
330
0
100
AcDbSymbolTable
70
1
0
LAYER
5
10
330
2
100
AcDbSymbolTableRecord
100
AcDbLayerTableRecord
2
0
70
0
62
7
6
CONTINUOUS
370
0
390
F
0
LAYER
5
44
330
2
100
AcDbSymbolTableRecord
100
AcDbLayerTableRecord
2
Bildsichtbereich (Glasmaß)
70
0
62
7
6
CONTINUOUS
370
35
390
F
0
LAYER
5
45
330
2
100
AcDbSymbolTableRecord
100
AcDbLayerTableRecord
2
Leuchtdiodenposition (zentriert)
70
0
62
4
6
CONTINUOUS
370
18
390
F
0
LAYER
5
46
330
2
100
AcDbSymbolTableRecord
100
AcDbLayerTableRecord
2
HALBE Magnetrahmen Alu 8 (Draufsicht)
70
0
62
253
420
10526884
6
DASHED
370
18
390
F
0
LAYER
5
47
330
2
100
AcDbSymbolTableRecord
100
AcDbLayerTableRecord
2
Lichtgitter (Schaumstoff schwarz)
70
0
62
216
420
8388736
6
CONTINUOUS
370
18
390
F
0
LAYER
5
48
330
2
100
AcDbSymbolTableRecord
100
AcDbLayerTableRecord
2
Buchstaben (Siebdruck Glas Stärke 2,4mm opak schwarz)
70
0
62
1
6
CONTINUOUS
370
18
390
F
0
LAYER
5
49
330
2
100
AcDbSymbolTableRecord
100
AcDbLayerTableRecord
2
Bemaßung (in mm)
70
0
62
7
6
CONTINUOUS
370
13
390
F
0
ENDTAB
0
TABLE
2
STYLE
5
3
330
0
100
AcDbSymbolTable
70
3
0
STYLE
5
4A
330
2
100
AcDbSymbolTableRecord
100
AcDbTextStyleTableRecord
2
wqy-unicode
70
0
40
0
41
1
50
0
71
0
42
1
3
wqy-unicode
4

0
STYLE
5
4B
330
2
100
AcDbSymbolTableRecord
100
AcDbTextStyleTableRecord
2
Standard
70
0
40
0
41
1
50
0
71
0
42
1
3
txt
4

0
ENDTAB
0
TABLE
2
VIEW
5
6
330
0
100
AcDbSymbolTable
70
0
0
ENDTAB
0
TABLE
2
UCS
5
7
330
0
100
AcDbSymbolTable
70
0
0
ENDTAB
0
TABLE
2
APPID
5
9
330
0
100
AcDbSymbolTable
70
1
0
APPID
5
12
330
9
100
AcDbSymbolTableRecord
100
AcDbRegAppTableRecord
2
ACAD
70
0
0
ENDTAB
0
TABLE
2
DIMSTYLE
5
A
330
0
100
AcDbSymbolTable
70
1
100
AcDbDimStyleTable
71
1
0
DIMSTYLE
105
4C
330
A
100
AcDbSymbolTableRecord
100
AcDbDimStyleTableRecord
2
Standard
70
0
40
1
41
2.5
42
0.625
43
0.38
44
1.25
45
0
46
0
47
0
48
0
140
2.5
141
0.09
142
0
143
25.4
144
1
145
0
146
1
147
0.625
148
0
71
0
72
0
73
0
74
1
75
0
76
0
77
0
78
0
79
0
170
0
171
2
172
0
173
0
174
0
175
0
176
0
177
0
178
0
179
0
271
4
272
4
273
2
274
2
275
0
276
0
277
2
278
46
279
0
280
0
281
0
282
0
283
1
284
0
285
0
286
0
288
0
289
3
340
Standard
341

371
-2
372
-2
0
ENDTAB
0
TABLE
2
BLOCK_RECORD
5
1
330
0
100
AcDbSymbolTable
70
2
0
BLOCK_RECORD
5
1F
330
1
100
AcDbSymbolTableRecord
100
AcDbBlockTableRecord
2
*Model_Space
70
0
280
1
281
0
0
BLOCK_RECORD
5
1E
330
1
100
AcDbSymbolTableRecord
100
AcDbBlockTableRecord
2
*Paper_Space
70
0
280
1
281
0
0
BLOCK_RECORD
5
4D
330
1
100
AcDbSymbolTableRecord
100
AcDbBlockTableRecord
2
*D8
70
0
280
1
281
0
0
BLOCK_RECORD
5
50
330
1
100
AcDbSymbolTableRecord
100
AcDbBlockTableRecord
2
*D2
70
0
280
1
281
0
0
BLOCK_RECORD
5
53
330
1
100
AcDbSymbolTableRecord
100
AcDbBlockTableRecord
2
*D11
70
0
280
1
281
0
0
BLOCK_RECORD
5
56
330
1
100
AcDbSymbolTableRecord
100
AcDbBlockTableRecord
2
*D1
70
0
280
1
281
0
0
BLOCK_RECORD
5
59
330
1
100
AcDbSymbolTableRecord
100
AcDbBlockTableRecord
2
*D14
70
0
280
1
281
0
0
BLOCK_RECORD
5
5C
330
1
100
AcDbSymbolTableRecord
100
AcDbBlockTableRecord
2
*D5
70
0
280
1
281
0
0
BLOCK_RECORD
5
5F
330
1
100
AcDbSymbolTableRecord
100
AcDbBlockTableRecord
2
*D12
70
0
280
1
281
0
0
BLOCK_RECORD
5
62
330
1
100
AcDbSymbolTableRecord
100
AcDbBlockTableRecord
2
*D16
70
0
280
1
281
0
0
BLOCK_RECORD
5
65
330
1
100
AcDbSymbolTableRecord
100
AcDbBlockTableRecord
2
*D10
70
0
280
1
281
0
0
BLOCK_RECORD
5
68
330
1
100
AcDbSymbolTableRecord
100
AcDbBlockTableRecord
2
*D9
70
0
280
1
281
0
0
BLOCK_RECORD
5
6B
330
1
100
AcDbSymbolTableRecord
100
AcDbBlockTableRecord
2
*D13
70
0
280
1
281
0
0
BLOCK_RECORD
5
6E
330
1
100
AcDbSymbolTableRecord
100
AcDbBlockTableRecord
2
*D3
70
0
280
1
281
0
0
BLOCK_RECORD
5
71
330
1
100
AcDbSymbolTableRecord
100
AcDbBlockTableRecord
2
*D15
70
0
280
1
281
0
0
BLOCK_RECORD
5
74
330
1
100
AcDbSymbolTableRecord
100
AcDbBlockTableRecord
2
*D6
70
0
280
1
281
0
0
BLOCK_RECORD
5
77
330
1
100
AcDbSymbolTableRecord
100
AcDbBlockTableRecord
2
*D4
70
0
280
1
281
0
0
BLOCK_RECORD
5
7A
330
1
100
AcDbSymbolTableRecord
100
AcDbBlockTableRecord
2
*D7
70
0
280
1
281
0
0
BLOCK_RECORD
5
7D
330
1
100
AcDbSymbolTableRecord
100
AcDbBlockTableRecord
2
*D17
70
0
280
1
281
0
0
ENDTAB
0
ENDSEC
0
SECTION
2
BLOCKS
0
BLOCK
5
20
330
1F
100
AcDbEntity
8
0
100
AcDbBlockBegin
2
*Model_Space
70
0
10
0
20
0
30
0
3
*Model_Space
1

0
ENDBLK
5
21
330
1F
100
AcDbEntity
8
0
100
AcDbBlockEnd
0
BLOCK
5
1C
330
1B
100
AcDbEntity
8
0
100
AcDbBlockBegin
2
*Paper_Space
70
0
10
0
20
0
30
0
3
*Paper_Space
1

0
ENDBLK
5
1D
330
1F
100
AcDbEntity
8
0
100
AcDbBlockEnd
0
BLOCK
5
4E
330
4D
100
AcDbEntity
8
0
100
AcDbBlockBegin
2
*D8
70
1
10
0
20
0
3
*D8
1

0
LINE
5
80
100
AcDbEntity
8
Bemaßung (in mm)
6
CONTINUOUS
62
7
370
0
100
AcDbLine
10
365
20
-21
11
400
21
-21
0
SOLID
5
81
100
AcDbEntity
8
Bemaßung (in mm)
6
CONTINUOUS
62
7
370
0
100
AcDbTrace
10
365
20
-21
30
0
11
367.5
21
-20.5837153422
31
0
12
367.5
22
-21.4162846578
32
0
13
367.5
23
-21.4162846578
33
0
0
SOLID
5
82
100
AcDbEntity
8
Bemaßung (in mm)
6
CONTINUOUS
62
7
370
0
100
AcDbTrace
10
400
20
-21
30
0
11
397.5
21
-21.4162846578
31
0
12
397.5
22
-20.5837153422
32
0
13
397.5
23
-20.5837153422
33
0
0
MTEXT
5
83
100
AcDbEntity
8
Bemaßung (in mm)
6
CONTINUOUS
62
7
370
0
100
AcDbMText
10
382.5
20
-19.125
30
0
40
2.5
41
3.05555555556
71
5
72
1
1
35
7
standard
210
0
220
0
230
1
50
0
73
2
44
1
0
LINE
5
84
100
AcDbEntity
8
Bemaßung (in mm)
6
CONTINUOUS
62
7
370
0
100
AcDbLine
10
365
20
67.375
11
365
21
-22.25
0
LINE
5
85
100
AcDbEntity
8
Bemaßung (in mm)
6
CONTINUOUS
62
7
370
0
100
AcDbLine
10
400
20
67.375
11
400
21
-22.25
0
ENDBLK
5
4F
330
4D
100
AcDbEntity
8
0
100
AcDbBlockEnd
0
BLOCK
5
51
330
50
100
AcDbEntity
8
0
100
AcDbBlockBegin
2
*D2
70
1
10
0
20
0
3
*D2
1

0
LINE
5
86
100
AcDbEntity
8
Bemaßung (in mm)
6
CONTINUOUS
62
7
370
0
100
AcDbLine
10
-26.5
20
365
11
-26.5
21
400
0
SOLID
5
87
100
AcDbEntity
8
Bemaßung (in mm)
6
CONTINUOUS
62
7
370
0
100
AcDbTrace
10
-26.5
20
365
30
0
11
-26.9162846578
21
367.5
31
0
12
-26.0837153422
22
367.5
32
0
13
-26.0837153422
23
367.5
33
0
0
SOLID
5
88
100
AcDbEntity
8
Bemaßung (in mm)
6
CONTINUOUS
62
7
370
0
100
AcDbTrace
10
-26.5
20
400
30
0
11
-26.0837153422
21
397.5
31
0
12
-26.9162846578
22
397.5
32
0
13
-26.9162846578
23
397.5
33
0
0
MTEXT
5
89
100
AcDbEntity
8
Bemaßung (in mm)
6
CONTINUOUS
62
7
370
0
100
AcDbMText
10
-28.375
20
382.5
30
0
40
2.5
41
3.05555555556
71
5
72
1
1
35
7
standard
210
0
220
0
230
1
50
90
73
2
44
1
0
LINE
5
8A
100
AcDbEntity
8
Bemaßung (in mm)
6
CONTINUOUS
62
7
370
0
100
AcDbLine
10
34.375
20
365
11
-27.75
21
365
0
LINE
5
8B
100
AcDbEntity
8
Bemaßung (in mm)
6
CONTINUOUS
62
7
370
0
100
AcDbLine
10
34.375
20
400
11
-27.75
21
400
0
ENDBLK
5
52
330
50
100
AcDbEntity
8
0
100
AcDbBlockEnd
0
BLOCK
5
54
330
53
100
AcDbEntity
8
0
100
AcDbBlockBegin
2
*D11
70
1
10
0
20
0
3
*D11
1

0
LINE
5
8C
100
AcDbEntity
8
Bemaßung (in mm)
6
CONTINUOUS
62
7
370
0
100
AcDbLine
10
-26.5
20
153
11
-26.5
21
181
0
SOLID
5
8D
100
AcDbEntity
8
Bemaßung (in mm)
6
CONTINUOUS
62
7
370
0
100
AcDbTrace
10
-26.5
20
153
30
0
11
-26.9162846578
21
155.5
31
0
12
-26.0837153422
22
155.5
32
0
13
-26.0837153422
23
155.5
33
0
0
SOLID
5
8E
100
AcDbEntity
8
Bemaßung (in mm)
6
CONTINUOUS
62
7
370
0
100
AcDbTrace
10
-26.5
20
181
30
0
11
-26.0837153422
21
178.5
31
0
12
-26.9162846578
22
178.5
32
0
13
-26.9162846578
23
178.5
33
0
0
MTEXT
5
8F
100
AcDbEntity
8
Bemaßung (in mm)
6
CONTINUOUS
62
7
370
0
100
AcDbMText
10
-28.375
20
167
30
0
40
2.5
41
3.05555555556
71
5
72
1
1
28
7
standard
210
0
220
0
230
1
50
90
73
2
44
1
0
LINE
5
90
100
AcDbEntity
8
Bemaßung (in mm)
6
CONTINUOUS
62
7
370
0
100
AcDbLine
10
20.375
20
153
11
-27.75
21
153
0
LINE
5
91
100
AcDbEntity
8
Bemaßung (in mm)
6
CONTINUOUS
62
7
370
0
100
AcDbLine
10
20.375
20
181
11
-27.75
21
181
0
ENDBLK
5
55
330
53
100
AcDbEntity
8
0
100
AcDbBlockEnd
0
BLOCK
5
57
330
56
100
AcDbEntity
8
0
100
AcDbBlockBegin
2
*D1
70
1
10
0
20
0
3
*D1
1

0
LINE
5
92
100
AcDbEntity
8
Bemaßung (in mm)
6
CONTINUOUS
62
7
370
0
100
AcDbLine
10
0
20
428
11
400
21
428
0
SOLID
5
93
100
AcDbEntity
8
Bemaßung (in mm)
6
CONTINUOUS
62
7
370
0
100
AcDbTrace
10
0
20
428
30
0
11
2.5
21
428.416284658
31
0
12
2.5
22
427.583715342
32
0
13
2.5
23
427.583715342
33
0
0
SOLID
5
94
100
AcDbEntity
8
Bemaßung (in mm)
6
CONTINUOUS
62
7
370
0
100
AcDbTrace
10
400
20
428
30
0
11
397.5
21
427.583715342
31
0
12
397.5
22
428.416284658
32
0
13
397.5
23
428.416284658
33
0
0
MTEXT
5
95
100
AcDbEntity
8
Bemaßung (in mm)
6
CONTINUOUS
62
7
370
0
100
AcDbMText
10
200
20
429.875
30
0
40
2.5
41
5.27777777778
71
5
72
1
1
400
7
standard
210
0
220
0
230
1
50
0
73
2
44
1
0
LINE
5
96
100
AcDbEntity
8
Bemaßung (in mm)
6
CONTINUOUS
62
7
370
0
100
AcDbLine
10
3.82702124734e-17
20
400.625
11
7.65404249467e-17
21
429.25
0
LINE
5
97
100
AcDbEntity
8
Bemaßung (in mm)
6
CONTINUOUS
62
7
370
0
100
AcDbLine
10
400
20
400.625
11
400
21
429.25
0
ENDBLK
5
58
330
56
100
AcDbEntity
8
0
100
AcDbBlockEnd
0
BLOCK
5
5A
330
59
100
AcDbEntity
8
0
100
AcDbBlockBegin
2
*D14
70
1
10
0
20
0
3
*D14
1

0
LINE
5
98
100
AcDbEntity
8
Bemaßung (in mm)
6
CONTINUOUS
62
7
370
0
100
AcDbLine
10
197.5
20
-29.5
11
169.5
21
-29.5
0
SOLID
5
99
100
AcDbEntity
8
Bemaßung (in mm)
6
CONTINUOUS
62
7
370
0
100
AcDbTrace
10
197.5
20
-29.5
30
0
11
195
21
-29.9162846578
31
0
12
195
22
-29.0837153422
32
0
13
195
23
-29.0837153422
33
0
0
SOLID
5
9A
100
AcDbEntity
8
Bemaßung (in mm)
6
CONTINUOUS
62
7
370
0
100
AcDbTrace
10
169.5
20
-29.5
30
0
11
172
21
-29.0837153422
31
0
12
172
22
-29.9162846578
32
0
13
172
23
-29.9162846578
33
0
0
MTEXT
5
9B
100
AcDbEntity
8
Bemaßung (in mm)
6
CONTINUOUS
62
7
370
0
100
AcDbMText
10
183.5
20
-27.625
30
0
40
2.5
41
3.05555555556
71
5
72
1
1
28
7
standard
210
0
220
0
230
1
50
360
73
2
44
1
0
LINE
5
9C
100
AcDbEntity
8
Bemaßung (in mm)
6
CONTINUOUS
62
7
370
0
100
AcDbLine
10
197.5
20
20.375
11
197.5
21
-30.75
0
LINE
5
9D
100
AcDbEntity
8
Bemaßung (in mm)
6
CONTINUOUS
62
7
370
0
100
AcDbLine
10
169.5
20
20.375
11
169.5
21
-30.75
0
ENDBLK
5
5B
330
59
100
AcDbEntity
8
0
100
AcDbBlockEnd
0
BLOCK
5
5D
330
5C
100
AcDbEntity
8
0
100
AcDbBlockBegin
2
*D5
70
1
10
0
20
0
3
*D5
1

0
LINE
5
9E
100
AcDbEntity
8
Bemaßung (in mm)
6
CONTINUOUS
62
7
370
0
100
AcDbLine
10
-26.5
20
35
11
-26.5
21
1.2576606423e-14
0
SOLID
5
9F
100
AcDbEntity
8
Bemaßung (in mm)
6
CONTINUOUS
62
7
370
0
100
AcDbTrace
10
-26.5
20
35
30
0
11
-26.0837153422
21
32.5
31
0
12
-26.9162846578
22
32.5
32
0
13
-26.9162846578
23
32.5
33
0
0
SOLID
5
A0
100
AcDbEntity
8
Bemaßung (in mm)
6
CONTINUOUS
62
7
370
0
100
AcDbTrace
10
-26.5
20
1.2576606423e-14
30
0
11
-26.9162846578
21
2.5
31
0
12
-26.0837153422
22
2.5
32
0
13
-26.0837153422
23
2.5
33
0
0
MTEXT
5
A1
100
AcDbEntity
8
Bemaßung (in mm)
6
CONTINUOUS
62
7
370
0
100
AcDbMText
10
-28.375
20
17.5
30
0
40
2.5
41
3.05555555556
71
5
72
1
1
35
7
standard
210
0
220
0
230
1
50
90
73
2
44
1
0
LINE
5
A2
100
AcDbEntity
8
Bemaßung (in mm)
6
CONTINUOUS
62
7
370
0
100
AcDbLine
10
149.875
20
35
11
-27.75
21
35
0
LINE
5
A3
100
AcDbEntity
8
Bemaßung (in mm)
6
CONTINUOUS
62
7
370
0
100
AcDbLine
10
149.875
20
7.65404249467e-17
11
-27.75
21
1.27296872728e-14
0
ENDBLK
5
5E
330
5C
100
AcDbEntity
8
0
100
AcDbBlockEnd
0
BLOCK
5
60
330
5F
100
AcDbEntity
8
0
100
AcDbBlockBegin
2
*D12
70
1
10
0
20
0
3
*D12
1

0
LINE
5
A4
100
AcDbEntity
8
Bemaßung (in mm)
6
CONTINUOUS
62
7
370
0
100
AcDbLine
10
-26.5
20
176
11
-26.5
21
191
0
SOLID
5
A5
100
AcDbEntity
8
Bemaßung (in mm)
6
CONTINUOUS
62
7
370
0
100
AcDbTrace
10
-26.5
20
181
30
0
11
-26.0837153422
21
178.5
31
0
12
-26.9162846578
22
178.5
32
0
13
-26.9162846578
23
178.5
33
0
0
SOLID
5
A6
100
AcDbEntity
8
Bemaßung (in mm)
6
CONTINUOUS
62
7
370
0
100
AcDbTrace
10
-26.5
20
186
30
0
11
-26.9162846578
21
188.5
31
0
12
-26.0837153422
22
188.5
32
0
13
-26.0837153422
23
188.5
33
0
0
MTEXT
5
A7
100
AcDbEntity
8
Bemaßung (in mm)
6
CONTINUOUS
62
7
370
0
100
AcDbMText
10
-28.375
20
183.5
30
0
40
2.5
41
1.11111111111
71
5
72
1
1
5
7
standard
210
0
220
0
230
1
50
90
73
2
44
1
0
LINE
5
A8
100
AcDbEntity
8
Bemaßung (in mm)
6
CONTINUOUS
62
7
370
0
100
AcDbLine
10
20.375
20
181
11
-27.75
21
181
0
LINE
5
A9
100
AcDbEntity
8
Bemaßung (in mm)
6
CONTINUOUS
62
7
370
0
100
AcDbLine
10
20.375
20
186
11
-27.75
21
186
0
ENDBLK
5
61
330
5F
100
AcDbEntity
8
0
100
AcDbBlockEnd
0
BLOCK
5
63
330
62
100
AcDbEntity
8
0
100
AcDbBlockBegin
2
*D16
70
1
10
0
20
0
3
*D16
1

0
LINE
5
AA
100
AcDbEntity
8
Bemaßung (in mm)
6
CONTINUOUS
62
7
370
0
100
AcDbLine
10
397
20
423
11
3
21
423
0
SOLID
5
AB
100
AcDbEntity
8
Bemaßung (in mm)
6
CONTINUOUS
62
7
370
0
100
AcDbTrace
10
397
20
423
30
0
11
394.5
21
422.583715342
31
0
12
394.5
22
423.416284658
32
0
13
394.5
23
423.416284658
33
0
0
SOLID
5
AC
100
AcDbEntity
8
Bemaßung (in mm)
6
CONTINUOUS
62
7
370
0
100
AcDbTrace
10
3
20
423
30
0
11
5.5
21
423.416284658
31
0
12
5.5
22
422.583715342
32
0
13
5.5
23
422.583715342
33
0
0
MTEXT
5
AD
100
AcDbEntity
8
Bemaßung (in mm)
6
CONTINUOUS
62
7
370
0
100
AcDbMText
10
200
20
424.875
30
0
40
2.5
41
5.27777777778
71
5
72
1
1
394
7
standard
210
0
220
0
230
1
50
360
73
2
44
1
0
LINE
5
AE
100
AcDbEntity
8
Bemaßung (in mm)
6
CONTINUOUS
62
7
370
0
100
AcDbLine
10
397
20
397.625
11
397
21
424.25
0
LINE
5
AF
100
AcDbEntity
8
Bemaßung (in mm)
6
CONTINUOUS
62
7
370
0
100
AcDbLine
10
3
20
397.625
11
3
21
424.25
0
ENDBLK
5
64
330
62
100
AcDbEntity
8
0
100
AcDbBlockEnd
0
BLOCK
5
66
330
65
100
AcDbEntity
8
0
100
AcDbBlockBegin
2
*D10
70
1
10
0
20
0
3
*D10
1

0
LINE
5
B0
100
AcDbEntity
8
Bemaßung (in mm)
6
CONTINUOUS
62
7
370
0
100
AcDbLine
10
429.5
20
1
11
429.5
21
399
0
SOLID
5
B1
100
AcDbEntity
8
Bemaßung (in mm)
6
CONTINUOUS
62
7
370
0
100
AcDbTrace
10
429.5
20
1
30
0
11
429.083715342
21
3.5
31
0
12
429.916284658
22
3.5
32
0
13
429.916284658
23
3.5
33
0
0
SOLID
5
B2
100
AcDbEntity
8
Bemaßung (in mm)
6
CONTINUOUS
62
7
370
0
100
AcDbTrace
10
429.5
20
399
30
0
11
429.916284658
21
396.5
31
0
12
429.083715342
22
396.5
32
0
13
429.083715342
23
396.5
33
0
0
MTEXT
5
B3
100
AcDbEntity
8
Bemaßung (in mm)
6
CONTINUOUS
62
7
370
0
100
AcDbMText
10
427.625
20
200
30
0
40
2.5
41
5
71
5
72
1
1
398
7
standard
210
0
220
0
230
1
50
90
73
2
44
1
0
LINE
5
B4
100
AcDbEntity
8
Bemaßung (in mm)
6
CONTINUOUS
62
7
370
0
100
AcDbLine
10
399.625
20
1
11
430.75
21
1
0
LINE
5
B5
100
AcDbEntity
8
Bemaßung (in mm)
6
CONTINUOUS
62
7
370
0
100
AcDbLine
10
399.625
20
399
11
430.75
21
399
0
ENDBLK
5
67
330
65
100
AcDbEntity
8
0
100
AcDbBlockEnd
0
BLOCK
5
69
330
68
100
AcDbEntity
8
0
100
AcDbBlockBegin
2
*D9
70
1
10
0
20
0
3
*D9
1

0
LINE
5
B6
100
AcDbEntity
8
Bemaßung (in mm)
6
CONTINUOUS
62
7
370
0
100
AcDbLine
10
332
20
-21
11
365
21
-21
0
SOLID
5
B7
100
AcDbEntity
8
Bemaßung (in mm)
6
CONTINUOUS
62
7
370
0
100
AcDbTrace
10
332
20
-21
30
0
11
334.5
21
-20.5837153422
31
0
12
334.5
22
-21.4162846578
32
0
13
334.5
23
-21.4162846578
33
0
0
SOLID
5
B8
100
AcDbEntity
8
Bemaßung (in mm)
6
CONTINUOUS
62
7
370
0
100
AcDbTrace
10
365
20
-21
30
0
11
362.5
21
-21.4162846578
31
0
12
362.5
22
-20.5837153422
32
0
13
362.5
23
-20.5837153422
33
0
0
MTEXT
5
B9
100
AcDbEntity
8
Bemaßung (in mm)
6
CONTINUOUS
62
7
370
0
100
AcDbMText
10
348.5
20
-19.125
30
0
40
2.5
41
3.05555555556
71
5
72
1
1
33
7
standard
210
0
220
0
230
1
50
0
73
2
44
1
0
LINE
5
BA
100
AcDbEntity
8
Bemaßung (in mm)
6
CONTINUOUS
62
7
370
0
100
AcDbLine
10
332
20
67.375
11
332
21
-22.25
0
LINE
5
BB
100
AcDbEntity
8
Bemaßung (in mm)
6
CONTINUOUS
62
7
370
0
100
AcDbLine
10
365
20
67.375
11
365
21
-22.25
0
ENDBLK
5
6A
330
68
100
AcDbEntity
8
0
100
AcDbBlockEnd
0
BLOCK
5
6C
330
6B
100
AcDbEntity
8
0
100
AcDbBlockBegin
2
*D13
70
1
10
0
20
0
3
*D13
1

0
LINE
5
BC
100
AcDbEntity
8
Bemaßung (in mm)
6
CONTINUOUS
62
7
370
0
100
AcDbLine
10
207.5
20
-29.5
11
192.5
21
-29.5
0
SOLID
5
BD
100
AcDbEntity
8
Bemaßung (in mm)
6
CONTINUOUS
62
7
370
0
100
AcDbTrace
10
202.5
20
-29.5
30
0
11
205
21
-29.0837153422
31
0
12
205
22
-29.9162846578
32
0
13
205
23
-29.9162846578
33
0
0
SOLID
5
BE
100
AcDbEntity
8
Bemaßung (in mm)
6
CONTINUOUS
62
7
370
0
100
AcDbTrace
10
197.5
20
-29.5
30
0
11
195
21
-29.9162846578
31
0
12
195
22
-29.0837153422
32
0
13
195
23
-29.0837153422
33
0
0
MTEXT
5
BF
100
AcDbEntity
8
Bemaßung (in mm)
6
CONTINUOUS
62
7
370
0
100
AcDbMText
10
200
20
-27.625
30
0
40
2.5
41
1.11111111111
71
5
72
1
1
5
7
standard
210
0
220
0
230
1
50
360
73
2
44
1
0
LINE
5
C0
100
AcDbEntity
8
Bemaßung (in mm)
6
CONTINUOUS
62
7
370
0
100
AcDbLine
10
202.5
20
20.375
11
202.5
21
-30.75
0
LINE
5
C1
100
AcDbEntity
8
Bemaßung (in mm)
6
CONTINUOUS
62
7
370
0
100
AcDbLine
10
197.5
20
20.375
11
197.5
21
-30.75
0
ENDBLK
5
6D
330
6B
100
AcDbEntity
8
0
100
AcDbBlockEnd
0
BLOCK
5
6F
330
6E
100
AcDbEntity
8
0
100
AcDbBlockBegin
2
*D3
70
1
10
0
20
0
3
*D3
1

0
LINE
5
C2
100
AcDbEntity
8
Bemaßung (in mm)
6
CONTINUOUS
62
7
370
0
100
AcDbLine
10
-26.5
20
365
11
-26.5
21
332
0
SOLID
5
C3
100
AcDbEntity
8
Bemaßung (in mm)
6
CONTINUOUS
62
7
370
0
100
AcDbTrace
10
-26.5
20
365
30
0
11
-26.0837153422
21
362.5
31
0
12
-26.9162846578
22
362.5
32
0
13
-26.9162846578
23
362.5
33
0
0
SOLID
5
C4
100
AcDbEntity
8
Bemaßung (in mm)
6
CONTINUOUS
62
7
370
0
100
AcDbTrace
10
-26.5
20
332
30
0
11
-26.9162846578
21
334.5
31
0
12
-26.0837153422
22
334.5
32
0
13
-26.0837153422
23
334.5
33
0
0
MTEXT
5
C5
100
AcDbEntity
8
Bemaßung (in mm)
6
CONTINUOUS
62
7
370
0
100
AcDbMText
10
-28.375
20
348.5
30
0
40
2.5
41
3.05555555556
71
5
72
1
1
33
7
standard
210
0
220
0
230
1
50
90
73
2
44
1
0
LINE
5
C6
100
AcDbEntity
8
Bemaßung (in mm)
6
CONTINUOUS
62
7
370
0
100
AcDbLine
10
34.375
20
365
11
-27.75
21
365
0
LINE
5
C7
100
AcDbEntity
8
Bemaßung (in mm)
6
CONTINUOUS
62
7
370
0
100
AcDbLine
10
34.375
20
332
11
-27.75
21
332
0
ENDBLK
5
70
330
6E
100
AcDbEntity
8
0
100
AcDbBlockEnd
0
BLOCK
5
72
330
71
100
AcDbEntity
8
0
100
AcDbBlockBegin
2
*D15
70
1
10
0
20
0
3
*D15
1

0
LINE
5
C8
100
AcDbEntity
8
Bemaßung (in mm)
6
CONTINUOUS
62
7
370
0
100
AcDbLine
10
120
20
-29.5
11
136.5
21
-29.5
0
SOLID
5
C9
100
AcDbEntity
8
Bemaßung (in mm)
6
CONTINUOUS
62
7
370
0
100
AcDbTrace
10
120
20
-29.5
30
0
11
122.5
21
-29.0837153422
31
0
12
122.5
22
-29.9162846578
32
0
13
122.5
23
-29.9162846578
33
0
0
SOLID
5
CA
100
AcDbEntity
8
Bemaßung (in mm)
6
CONTINUOUS
62
7
370
0
100
AcDbTrace
10
136.5
20
-29.5
30
0
11
134
21
-29.9162846578
31
0
12
134
22
-29.0837153422
32
0
13
134
23
-29.0837153422
33
0
0
MTEXT
5
CB
100
AcDbEntity
8
Bemaßung (in mm)
6
CONTINUOUS
62
7
370
0
100
AcDbMText
10
128.25
20
-27.625
30
0
40
2.5
41
5.27777777778
71
5
72
1
1
16.5
7
standard
210
0
220
0
230
1
50
0
73
2
44
1
0
LINE
5
CC
100
AcDbEntity
8
Bemaßung (in mm)
6
CONTINUOUS
62
7
370
0
100
AcDbLine
10
120
20
53.375
11
120
21
-30.75
0
LINE
5
CD
100
AcDbEntity
8
Bemaßung (in mm)
6
CONTINUOUS
62
7
370
0
100
AcDbLine
10
136.5
20
20.375
11
136.5
21
-30.75
0
ENDBLK
5
73
330
71
100
AcDbEntity
8
0
100
AcDbBlockEnd
0
BLOCK
5
75
330
74
100
AcDbEntity
8
0
100
AcDbBlockBegin
2
*D6
70
1
10
0
20
0
3
*D6
1

0
LINE
5
CE
100
AcDbEntity
8
Bemaßung (in mm)
6
CONTINUOUS
62
7
370
0
100
AcDbLine
10
216.5
20
-29.5
11
249.5
21
-29.5
0
SOLID
5
CF
100
AcDbEntity
8
Bemaßung (in mm)
6
CONTINUOUS
62
7
370
0
100
AcDbTrace
10
216.5
20
-29.5
30
0
11
219
21
-29.0837153422
31
0
12
219
22
-29.9162846578
32
0
13
219
23
-29.9162846578
33
0
0
SOLID
5
D0
100
AcDbEntity
8
Bemaßung (in mm)
6
CONTINUOUS
62
7
370
0
100
AcDbTrace
10
249.5
20
-29.5
30
0
11
247
21
-29.9162846578
31
0
12
247
22
-29.0837153422
32
0
13
247
23
-29.0837153422
33
0
0
MTEXT
5
D1
100
AcDbEntity
8
Bemaßung (in mm)
6
CONTINUOUS
62
7
370
0
100
AcDbMText
10
233
20
-27.625
30
0
40
2.5
41
3.05555555556
71
5
72
1
1
33
7
standard
210
0
220
0
230
1
50
0
73
2
44
1
0
LINE
5
D2
100
AcDbEntity
8
Bemaßung (in mm)
6
CONTINUOUS
62
7
370
0
100
AcDbLine
10
216.5
20
34.375
11
216.5
21
-30.75
0
LINE
5
D3
100
AcDbEntity
8
Bemaßung (in mm)
6
CONTINUOUS
62
7
370
0
100
AcDbLine
10
249.5
20
34.375
11
249.5
21
-30.75
0
ENDBLK
5
76
330
74
100
AcDbEntity
8
0
100
AcDbBlockEnd
0
BLOCK
5
78
330
77
100
AcDbEntity
8
0
100
AcDbBlockBegin
2
*D4
70
1
10
0
20
0
3
*D4
1

0
LINE
5
D4
100
AcDbEntity
8
Bemaßung (in mm)
6
CONTINUOUS
62
7
370
0
100
AcDbLine
10
-26.5
20
35
11
-26.5
21
68
0
SOLID
5
D5
100
AcDbEntity
8
Bemaßung (in mm)
6
CONTINUOUS
62
7
370
0
100
AcDbTrace
10
-26.5
20
35
30
0
11
-26.9162846578
21
37.5
31
0
12
-26.0837153422
22
37.5
32
0
13
-26.0837153422
23
37.5
33
0
0
SOLID
5
D6
100
AcDbEntity
8
Bemaßung (in mm)
6
CONTINUOUS
62
7
370
0
100
AcDbTrace
10
-26.5
20
68
30
0
11
-26.0837153422
21
65.5
31
0
12
-26.9162846578
22
65.5
32
0
13
-26.9162846578
23
65.5
33
0
0
MTEXT
5
D7
100
AcDbEntity
8
Bemaßung (in mm)
6
CONTINUOUS
62
7
370
0
100
AcDbMText
10
-28.375
20
51.5
30
0
40
2.5
41
3.05555555556
71
5
72
1
1
33
7
standard
210
0
220
0
230
1
50
90
73
2
44
1
0
LINE
5
D8
100
AcDbEntity
8
Bemaßung (in mm)
6
CONTINUOUS
62
7
370
0
100
AcDbLine
10
149.875
20
35
11
-27.75
21
35
0
LINE
5
D9
100
AcDbEntity
8
Bemaßung (in mm)
6
CONTINUOUS
62
7
370
0
100
AcDbLine
10
34.375
20
68
11
-27.75
21
68
0
ENDBLK
5
79
330
77
100
AcDbEntity
8
0
100
AcDbBlockEnd
0
BLOCK
5
7B
330
7A
100
AcDbEntity
8
0
100
AcDbBlockBegin
2
*D7
70
1
10
0
20
0
3
*D7
1

0
LINE
5
DA
100
AcDbEntity
8
Bemaßung (in mm)
6
CONTINUOUS
62
7
370
0
100
AcDbLine
10
249.5
20
-29.5
11
400
21
-29.5
0
SOLID
5
DB
100
AcDbEntity
8
Bemaßung (in mm)
6
CONTINUOUS
62
7
370
0
100
AcDbTrace
10
249.5
20
-29.5
30
0
11
252
21
-29.0837153422
31
0
12
252
22
-29.9162846578
32
0
13
252
23
-29.9162846578
33
0
0
SOLID
5
DC
100
AcDbEntity
8
Bemaßung (in mm)
6
CONTINUOUS
62
7
370
0
100
AcDbTrace
10
400
20
-29.5
30
0
11
397.5
21
-29.9162846578
31
0
12
397.5
22
-29.0837153422
32
0
13
397.5
23
-29.0837153422
33
0
0
MTEXT
5
DD
100
AcDbEntity
8
Bemaßung (in mm)
6
CONTINUOUS
62
7
370
0
100
AcDbMText
10
324.75
20
-27.625
30
0
40
2.5
41
7.22222222222
71
5
72
1
1
150.5
7
standard
210
0
220
0
230
1
50
0
73
2
44
1
0
LINE
5
DE
100
AcDbEntity
8
Bemaßung (in mm)
6
CONTINUOUS
62
7
370
0
100
AcDbLine
10
249.5
20
34.375
11
249.5
21
-30.75
0
LINE
5
DF
100
AcDbEntity
8
Bemaßung (in mm)
6
CONTINUOUS
62
7
370
0
100
AcDbLine
10
400
20
34.375
11
400
21
-30.75
0
ENDBLK
5
7C
330
7A
100
AcDbEntity
8
0
100
AcDbBlockEnd
0
BLOCK
5
7E
330
7D
100
AcDbEntity
8
0
100
AcDbBlockBegin
2
*D17
70
1
10
0
20
0
3
*D17
1

0
LINE
5
E0
100
AcDbEntity
8
Bemaßung (in mm)
6
CONTINUOUS
62
7
370
0
100
AcDbLine
10
406.5
20
433
11
-6.5
21
433
0
SOLID
5
E1
100
AcDbEntity
8
Bemaßung (in mm)
6
CONTINUOUS
62
7
370
0
100
AcDbTrace
10
406.5
20
433
30
0
11
404
21
432.583715342
31
0
12
404
22
433.416284658
32
0
13
404
23
433.416284658
33
0
0
SOLID
5
E2
100
AcDbEntity
8
Bemaßung (in mm)
6
CONTINUOUS
62
7
370
0
100
AcDbTrace
10
-6.5
20
433
30
0
11
-4
21
433.416284658
31
0
12
-4
22
432.583715342
32
0
13
-4
23
432.583715342
33
0
0
MTEXT
5
E3
100
AcDbEntity
8
Bemaßung (in mm)
6
CONTINUOUS
62
7
370
0
100
AcDbMText
10
200
20
434.875
30
0
40
2.5
41
4.72222222222
71
5
72
1
1
413
7
standard
210
0
220
0
230
1
50
360
73
2
44
1
0
LINE
5
E4
100
AcDbEntity
8
Bemaßung (in mm)
6
CONTINUOUS
62
7
370
0
100
AcDbLine
10
406.5
20
407.125
11
406.5
21
434.25
0
LINE
5
E5
100
AcDbEntity
8
Bemaßung (in mm)
6
CONTINUOUS
62
7
370
0
100
AcDbLine
10
-6.5
20
407.125
11
-6.5
21
434.25
0
ENDBLK
5
7F
330
7D
100
AcDbEntity
8
0
100
AcDbBlockEnd
0
ENDSEC
0
SECTION
2
ENTITIES
0
LINE
5
E6
100
AcDbEntity
8
Bildsichtbereich (Glasmaß)
6
ByLayer
62
256
370
-1
100
AcDbLine
10
0
20
0
11
400
21
0
0
LINE
5
E7
100
AcDbEntity
8
Bildsichtbereich (Glasmaß)
6
ByLayer
62
256
370
-1
100
AcDbLine
10
400
20
0
11
400
21
400
0
LINE
5
E8
100
AcDbEntity
8
Bildsichtbereich (Glasmaß)
6
ByLayer
62
256
370
-1
100
AcDbLine
10
400
20
400
11
0
21
400
0
LINE
5
E9
100
AcDbEntity
8
Bildsichtbereich (Glasmaß)
6
ByLayer
62
256
370
-1
100
AcDbLine
10
0
20
400
11
0
21
0
0
LINE
5
EA
100
AcDbEntity
8
Leuchtdiodenposition (zentriert)
6
ByLayer
62
256
370
-1
100
AcDbLine
10
34.5
20
68.5
11
35.5
21
68.5
0
LINE
5
EB
100
AcDbEntity
8
Leuchtdiodenposition (zentriert)
6
ByLayer
62
256
370
-1
100
AcDbLine
10
35.5
20
68.5
11
35.5
21
67.5
0
LINE
5
EC
100
AcDbEntity
8
Leuchtdiodenposition (zentriert)
6
ByLayer
62
256
370
-1
100
AcDbLine
10
35.5
20
67.5
11
34.5
21
67.5
0
LINE
5
ED
100
AcDbEntity
8
Leuchtdiodenposition (zentriert)
6
ByLayer
62
256
370
-1
100
AcDbLine
10
34.5
20
67.5
11
34.5
21
68.5
0
LINE
5
EE
100
AcDbEntity
8
Leuchtdiodenposition (zentriert)
6
ByLayer
62
256
370
-1
100
AcDbLine
10
67.5
20
68.5
11
68.5
21
68.5
0
LINE
5
EF
100
AcDbEntity
8
Leuchtdiodenposition (zentriert)
6
ByLayer
62
256
370
-1
100
AcDbLine
10
68.5
20
68.5
11
68.5
21
67.5
0
LINE
5
F0
100
AcDbEntity
8
Leuchtdiodenposition (zentriert)
6
ByLayer
62
256
370
-1
100
AcDbLine
10
68.5
20
67.5
11
67.5
21
67.5
0
LINE
5
F1
100
AcDbEntity
8
Leuchtdiodenposition (zentriert)
6
ByLayer
62
256
370
-1
100
AcDbLine
10
67.5
20
67.5
11
67.5
21
68.5
0
LINE
5
F2
100
AcDbEntity
8
Leuchtdiodenposition (zentriert)
6
ByLayer
62
256
370
-1
100
AcDbLine
10
100.5
20
68.5
11
101.5
21
68.5
0
LINE
5
F3
100
AcDbEntity
8
Leuchtdiodenposition (zentriert)
6
ByLayer
62
256
370
-1
100
AcDbLine
10
101.5
20
68.5
11
101.5
21
67.5
0
LINE
5
F4
100
AcDbEntity
8
Leuchtdiodenposition (zentriert)
6
ByLayer
62
256
370
-1
100
AcDbLine
10
101.5
20
67.5
11
100.5
21
67.5
0
LINE
5
F5
100
AcDbEntity
8
Leuchtdiodenposition (zentriert)
6
ByLayer
62
256
370
-1
100
AcDbLine
10
100.5
20
67.5
11
100.5
21
68.5
0
LINE
5
F6
100
AcDbEntity
8
Leuchtdiodenposition (zentriert)
6
ByLayer
62
256
370
-1
100
AcDbLine
10
133.5
20
68.5
11
134.5
21
68.5
0
LINE
5
F7
100
AcDbEntity
8
Leuchtdiodenposition (zentriert)
6
ByLayer
62
256
370
-1
100
AcDbLine
10
134.5
20
68.5
11
134.5
21
67.5
0
LINE
5
F8
100
AcDbEntity
8
Leuchtdiodenposition (zentriert)
6
ByLayer
62
256
370
-1
100
AcDbLine
10
134.5
20
67.5
11
133.5
21
67.5
0
LINE
5
F9
100
AcDbEntity
8
Leuchtdiodenposition (zentriert)
6
ByLayer
62
256
370
-1
100
AcDbLine
10
133.5
20
67.5
11
133.5
21
68.5
0
LINE
5
FA
100
AcDbEntity
8
Leuchtdiodenposition (zentriert)
6
ByLayer
62
256
370
-1
100
AcDbLine
10
166.5
20
68.5
11
167.5
21
68.5
0
LINE
5
FB
100
AcDbEntity
8
Leuchtdiodenposition (zentriert)
6
ByLayer
62
256
370
-1
100
AcDbLine
10
167.5
20
68.5
11
167.5
21
67.5
0
LINE
5
FC
100
AcDbEntity
8
Leuchtdiodenposition (zentriert)
6
ByLayer
62
256
370
-1
100
AcDbLine
10
167.5
20
67.5
11
166.5
21
67.5
0
LINE
5
FD
100
AcDbEntity
8
Leuchtdiodenposition (zentriert)
6
ByLayer
62
256
370
-1
100
AcDbLine
10
166.5
20
67.5
11
166.5
21
68.5
0
LINE
5
FE
100
AcDbEntity
8
Leuchtdiodenposition (zentriert)
6
ByLayer
62
256
370
-1
100
AcDbLine
10
199.5
20
68.5
11
200.5
21
68.5
0
LINE
5
FF
100
AcDbEntity
8
Leuchtdiodenposition (zentriert)
6
ByLayer
62
256
370
-1
100
AcDbLine
10
200.5
20
68.5
11
200.5
21
67.5
0
LINE
5
100
100
AcDbEntity
8
Leuchtdiodenposition (zentriert)
6
ByLayer
62
256
370
-1
100
AcDbLine
10
200.5
20
67.5
11
199.5
21
67.5
0
LINE
5
101
100
AcDbEntity
8
Leuchtdiodenposition (zentriert)
6
ByLayer
62
256
370
-1
100
AcDbLine
10
199.5
20
67.5
11
199.5
21
68.5
0
LINE
5
102
100
AcDbEntity
8
Leuchtdiodenposition (zentriert)
6
ByLayer
62
256
370
-1
100
AcDbLine
10
232.5
20
68.5
11
233.5
21
68.5
0
LINE
5
103
100
AcDbEntity
8
Leuchtdiodenposition (zentriert)
6
ByLayer
62
256
370
-1
100
AcDbLine
10
233.5
20
68.5
11
233.5
21
67.5
0
LINE
5
104
100
AcDbEntity
8
Leuchtdiodenposition (zentriert)
6
ByLayer
62
256
370
-1
100
AcDbLine
10
233.5
20
67.5
11
232.5
21
67.5
0
LINE
5
105
100
AcDbEntity
8
Leuchtdiodenposition (zentriert)
6
ByLayer
62
256
370
-1
100
AcDbLine
10
232.5
20
67.5
11
232.5
21
68.5
0
LINE
5
106
100
AcDbEntity
8
Leuchtdiodenposition (zentriert)
6
ByLayer
62
256
370
-1
100
AcDbLine
10
265.5
20
68.5
11
266.5
21
68.5
0
LINE
5
107
100
AcDbEntity
8
Leuchtdiodenposition (zentriert)
6
ByLayer
62
256
370
-1
100
AcDbLine
10
266.5
20
68.5
11
266.5
21
67.5
0
LINE
5
108
100
AcDbEntity
8
Leuchtdiodenposition (zentriert)
6
ByLayer
62
256
370
-1
100
AcDbLine
10
266.5
20
67.5
11
265.5
21
67.5
0
LINE
5
109
100
AcDbEntity
8
Leuchtdiodenposition (zentriert)
6
ByLayer
62
256
370
-1
100
AcDbLine
10
265.5
20
67.5
11
265.5
21
68.5
0
LINE
5
10A
100
AcDbEntity
8
Leuchtdiodenposition (zentriert)
6
ByLayer
62
256
370
-1
100
AcDbLine
10
298.5
20
68.5
11
299.5
21
68.5
0
LINE
5
10B
100
AcDbEntity
8
Leuchtdiodenposition (zentriert)
6
ByLayer
62
256
370
-1
100
AcDbLine
10
299.5
20
68.5
11
299.5
21
67.5
0
LINE
5
10C
100
AcDbEntity
8
Leuchtdiodenposition (zentriert)
6
ByLayer
62
256
370
-1
100
AcDbLine
10
299.5
20
67.5
11
298.5
21
67.5
0
LINE
5
10D
100
AcDbEntity
8
Leuchtdiodenposition (zentriert)
6
ByLayer
62
256
370
-1
100
AcDbLine
10
298.5
20
67.5
11
298.5
21
68.5
0
LINE
5
10E
100
AcDbEntity
8
Leuchtdiodenposition (zentriert)
6
ByLayer
62
256
370
-1
100
AcDbLine
10
331.5
20
68.5
11
332.5
21
68.5
0
LINE
5
10F
100
AcDbEntity
8
Leuchtdiodenposition (zentriert)
6
ByLayer
62
256
370
-1
100
AcDbLine
10
332.5
20
68.5
11
332.5
21
67.5
0
LINE
5
110
100
AcDbEntity
8
Leuchtdiodenposition (zentriert)
6
ByLayer
62
256
370
-1
100
AcDbLine
10
332.5
20
67.5
11
331.5
21
67.5
0
LINE
5
111
100
AcDbEntity
8
Leuchtdiodenposition (zentriert)
6
ByLayer
62
256
370
-1
100
AcDbLine
10
331.5
20
67.5
11
331.5
21
68.5
0
LINE
5
112
100
AcDbEntity
8
Leuchtdiodenposition (zentriert)
6
ByLayer
62
256
370
-1
100
AcDbLine
10
364.5
20
68.5
11
365.5
21
68.5
0
LINE
5
113
100
AcDbEntity
8
Leuchtdiodenposition (zentriert)
6
ByLayer
62
256
370
-1
100
AcDbLine
10
365.5
20
68.5
11
365.5
21
67.5
0
LINE
5
114
100
AcDbEntity
8
Leuchtdiodenposition (zentriert)
6
ByLayer
62
256
370
-1
100
AcDbLine
10
365.5
20
67.5
11
364.5
21
67.5
0
LINE
5
115
100
AcDbEntity
8
Leuchtdiodenposition (zentriert)
6
ByLayer
62
256
370
-1
100
AcDbLine
10
364.5
20
67.5
11
364.5
21
68.5
0
LINE
5
116
100
AcDbEntity
8
Leuchtdiodenposition (zentriert)
6
ByLayer
62
256
370
-1
100
AcDbLine
10
34.5
20
101.5
11
35.5
21
101.5
0
LINE
5
117
100
AcDbEntity
8
Leuchtdiodenposition (zentriert)
6
ByLayer
62
256
370
-1
100
AcDbLine
10
35.5
20
101.5
11
35.5
21
100.5
0
LINE
5
118
100
AcDbEntity
8
Leuchtdiodenposition (zentriert)
6
ByLayer
62
256
370
-1
100
AcDbLine
10
35.5
20
100.5
11
34.5
21
100.5
0
LINE
5
119
100
AcDbEntity
8
Leuchtdiodenposition (zentriert)
6
ByLayer
62
256
370
-1
100
AcDbLine
10
34.5
20
100.5
11
34.5
21
101.5
0
LINE
5
11A
100
AcDbEntity
8
Leuchtdiodenposition (zentriert)
6
ByLayer
62
256
370
-1
100
AcDbLine
10
67.5
20
101.5
11
68.5
21
101.5
0
LINE
5
11B
100
AcDbEntity
8
Leuchtdiodenposition (zentriert)
6
ByLayer
62
256
370
-1
100
AcDbLine
10
68.5
20
101.5
11
68.5
21
100.5
0
LINE
5
11C
100
AcDbEntity
8
Leuchtdiodenposition (zentriert)
6
ByLayer
62
256
370
-1
100
AcDbLine
10
68.5
20
100.5
11
67.5
21
100.5
0
LINE
5
11D
100
AcDbEntity
8
Leuchtdiodenposition (zentriert)
6
ByLayer
62
256
370
-1
100
AcDbLine
10
67.5
20
100.5
11
67.5
21
101.5
0
LINE
5
11E
100
AcDbEntity
8
Leuchtdiodenposition (zentriert)
6
ByLayer
62
256
370
-1
100
AcDbLine
10
100.5
20
101.5
11
101.5
21
101.5
0
LINE
5
11F
100
AcDbEntity
8
Leuchtdiodenposition (zentriert)
6
ByLayer
62
256
370
-1
100
AcDbLine
10
101.5
20
101.5
11
101.5
21
100.5
0
LINE
5
120
100
AcDbEntity
8
Leuchtdiodenposition (zentriert)
6
ByLayer
62
256
370
-1
100
AcDbLine
10
101.5
20
100.5
11
100.5
21
100.5
0
LINE
5
121
100
AcDbEntity
8
Leuchtdiodenposition (zentriert)
6
ByLayer
62
256
370
-1
100
AcDbLine
10
100.5
20
100.5
11
100.5
21
101.5
0
LINE
5
122
100
AcDbEntity
8
Leuchtdiodenposition (zentriert)
6
ByLayer
62
256
370
-1
100
AcDbLine
10
133.5
20
101.5
11
134.5
21
101.5
0
LINE
5
123
100
AcDbEntity
8
Leuchtdiodenposition (zentriert)
6
ByLayer
62
256
370
-1
100
AcDbLine
10
134.5
20
101.5
11
134.5
21
100.5
0
LINE
5
124
100
AcDbEntity
8
Leuchtdiodenposition (zentriert)
6
ByLayer
62
256
370
-1
100
AcDbLine
10
134.5
20
100.5
11
133.5
21
100.5
0
LINE
5
125
100
AcDbEntity
8
Leuchtdiodenposition (zentriert)
6
ByLayer
62
256
370
-1
100
AcDbLine
10
133.5
20
100.5
11
133.5
21
101.5
0
LINE
5
126
100
AcDbEntity
8
Leuchtdiodenposition (zentriert)
6
ByLayer
62
256
370
-1
100
AcDbLine
10
166.5
20
101.5
11
167.5
21
101.5
0
LINE
5
127
100
AcDbEntity
8
Leuchtdiodenposition (zentriert)
6
ByLayer
62
256
370
-1
100
AcDbLine
10
167.5
20
101.5
11
167.5
21
100.5
0
LINE
5
128
100
AcDbEntity
8
Leuchtdiodenposition (zentriert)
6
ByLayer
62
256
370
-1
100
AcDbLine
10
167.5
20
100.5
11
166.5
21
100.5
0
LINE
5
129
100
AcDbEntity
8
Leuchtdiodenposition (zentriert)
6
ByLayer
62
256
370
-1
100
AcDbLine
10
166.5
20
100.5
11
166.5
21
101.5
0
LINE
5
12A
100
AcDbEntity
8
Leuchtdiodenposition (zentriert)
6
ByLayer
62
256
370
-1
100
AcDbLine
10
199.5
20
101.5
11
200.5
21
101.5
0
LINE
5
12B
100
AcDbEntity
8
Leuchtdiodenposition (zentriert)
6
ByLayer
62
256
370
-1
100
AcDbLine
10
200.5
20
101.5
11
200.5
21
100.5
0
LINE
5
12C
100
AcDbEntity
8
Leuchtdiodenposition (zentriert)
6
ByLayer
62
256
370
-1
100
AcDbLine
10
200.5
20
100.5
11
199.5
21
100.5
0
LINE
5
12D
100
AcDbEntity
8
Leuchtdiodenposition (zentriert)
6
ByLayer
62
256
370
-1
100
AcDbLine
10
199.5
20
100.5
11
199.5
21
101.5
0
LINE
5
12E
100
AcDbEntity
8
Leuchtdiodenposition (zentriert)
6
ByLayer
62
256
370
-1
100
AcDbLine
10
232.5
20
101.5
11
233.5
21
101.5
0
LINE
5
12F
100
AcDbEntity
8
Leuchtdiodenposition (zentriert)
6
ByLayer
62
256
370
-1
100
AcDbLine
10
233.5
20
101.5
11
233.5
21
100.5
0
LINE
5
130
100
AcDbEntity
8
Leuchtdiodenposition (zentriert)
6
ByLayer
62
256
370
-1
100
AcDbLine
10
233.5
20
100.5
11
232.5
21
100.5
0
LINE
5
131
100
AcDbEntity
8
Leuchtdiodenposition (zentriert)
6
ByLayer
62
256
370
-1
100
AcDbLine
10
232.5
20
100.5
11
232.5
21
101.5
0
LINE
5
132
100
AcDbEntity
8
Leuchtdiodenposition (zentriert)
6
ByLayer
62
256
370
-1
100
AcDbLine
10
265.5
20
101.5
11
266.5
21
101.5
0
LINE
5
133
100
AcDbEntity
8
Leuchtdiodenposition (zentriert)
6
ByLayer
62
256
370
-1
100
AcDbLine
10
266.5
20
101.5
11
266.5
21
100.5
0
LINE
5
134
100
AcDbEntity
8
Leuchtdiodenposition (zentriert)
6
ByLayer
62
256
370
-1
100
AcDbLine
10
266.5
20
100.5
11
265.5
21
100.5
0
LINE
5
135
100
AcDbEntity
8
Leuchtdiodenposition (zentriert)
6
ByLayer
62
256
370
-1
100
AcDbLine
10
265.5
20
100.5
11
265.5
21
101.5
0
LINE
5
136
100
AcDbEntity
8
Leuchtdiodenposition (zentriert)
6
ByLayer
62
256
370
-1
100
AcDbLine
10
298.5
20
101.5
11
299.5
21
101.5
0
LINE
5
137
100
AcDbEntity
8
Leuchtdiodenposition (zentriert)
6
ByLayer
62
256
370
-1
100
AcDbLine
10
299.5
20
101.5
11
299.5
21
100.5
0
LINE
5
138
100
AcDbEntity
8
Leuchtdiodenposition (zentriert)
6
ByLayer
62
256
370
-1
100
AcDbLine
10
299.5
20
100.5
11
298.5
21
100.5
0
LINE
5
139
100
AcDbEntity
8
Leuchtdiodenposition (zentriert)
6
ByLayer
62
256
370
-1
100
AcDbLine
10
298.5
20
100.5
11
298.5
21
101.5
0
LINE
5
13A
100
AcDbEntity
8
Leuchtdiodenposition (zentriert)
6
ByLayer
62
256
370
-1
100
AcDbLine
10
331.5
20
101.5
11
332.5
21
101.5
0
LINE
5
13B
100
AcDbEntity
8
Leuchtdiodenposition (zentriert)
6
ByLayer
62
256
370
-1
100
AcDbLine
10
332.5
20
101.5
11
332.5
21
100.5
0
LINE
5
13C
100
AcDbEntity
8
Leuchtdiodenposition (zentriert)
6
ByLayer
62
256
370
-1
100
AcDbLine
10
332.5
20
100.5
11
331.5
21
100.5
0
LINE
5
13D
100
AcDbEntity
8
Leuchtdiodenposition (zentriert)
6
ByLayer
62
256
370
-1
100
AcDbLine
10
331.5
20
100.5
11
331.5
21
101.5
0
LINE
5
13E
100
AcDbEntity
8
Leuchtdiodenposition (zentriert)
6
ByLayer
62
256
370
-1
100
AcDbLine
10
364.5
20
101.5
11
365.5
21
101.5
0
LINE
5
13F
100
AcDbEntity
8
Leuchtdiodenposition (zentriert)
6
ByLayer
62
256
370
-1
100
AcDbLine
10
365.5
20
101.5
11
365.5
21
100.5
0
LINE
5
140
100
AcDbEntity
8
Leuchtdiodenposition (zentriert)
6
ByLayer
62
256
370
-1
100
AcDbLine
10
365.5
20
100.5
11
364.5
21
100.5
0
LINE
5
141
100
AcDbEntity
8
Leuchtdiodenposition (zentriert)
6
ByLayer
62
256
370
-1
100
AcDbLine
10
364.5
20
100.5
11
364.5
21
101.5
0
LINE
5
142
100
AcDbEntity
8
Leuchtdiodenposition (zentriert)
6
ByLayer
62
256
370
-1
100
AcDbLine
10
34.5
20
134.5
11
35.5
21
134.5
0
LINE
5
143
100
AcDbEntity
8
Leuchtdiodenposition (zentriert)
6
ByLayer
62
256
370
-1
100
AcDbLine
10
35.5
20
134.5
11
35.5
21
133.5
0
LINE
5
144
100
AcDbEntity
8
Leuchtdiodenposition (zentriert)
6
ByLayer
62
256
370
-1
100
AcDbLine
10
35.5
20
133.5
11
34.5
21
133.5
0
LINE
5
145
100
AcDbEntity
8
Leuchtdiodenposition (zentriert)
6
ByLayer
62
256
370
-1
100
AcDbLine
10
34.5
20
133.5
11
34.5
21
134.5
0
LINE
5
146
100
AcDbEntity
8
Leuchtdiodenposition (zentriert)
6
ByLayer
62
256
370
-1
100
AcDbLine
10
67.5
20
134.5
11
68.5
21
134.5
0
LINE
5
147
100
AcDbEntity
8
Leuchtdiodenposition (zentriert)
6
ByLayer
62
256
370
-1
100
AcDbLine
10
68.5
20
134.5
11
68.5
21
133.5
0
LINE
5
148
100
AcDbEntity
8
Leuchtdiodenposition (zentriert)
6
ByLayer
62
256
370
-1
100
AcDbLine
10
68.5
20
133.5
11
67.5
21
133.5
0
LINE
5
149
100
AcDbEntity
8
Leuchtdiodenposition (zentriert)
6
ByLayer
62
256
370
-1
100
AcDbLine
10
67.5
20
133.5
11
67.5
21
134.5
0
LINE
5
14A
100
AcDbEntity
8
Leuchtdiodenposition (zentriert)
6
ByLayer
62
256
370
-1
100
AcDbLine
10
100.5
20
134.5
11
101.5
21
134.5
0
LINE
5
14B
100
AcDbEntity
8
Leuchtdiodenposition (zentriert)
6
ByLayer
62
256
370
-1
100
AcDbLine
10
101.5
20
134.5
11
101.5
21
133.5
0
LINE
5
14C
100
AcDbEntity
8
Leuchtdiodenposition (zentriert)
6
ByLayer
62
256
370
-1
100
AcDbLine
10
101.5
20
133.5
11
100.5
21
133.5
0
LINE
5
14D
100
AcDbEntity
8
Leuchtdiodenposition (zentriert)
6
ByLayer
62
256
370
-1
100
AcDbLine
10
100.5
20
133.5
11
100.5
21
134.5
0
LINE
5
14E
100
AcDbEntity
8
Leuchtdiodenposition (zentriert)
6
ByLayer
62
256
370
-1
100
AcDbLine
10
133.5
20
134.5
11
134.5
21
134.5
0
LINE
5
14F
100
AcDbEntity
8
Leuchtdiodenposition (zentriert)
6
ByLayer
62
256
370
-1
100
AcDbLine
10
134.5
20
134.5
11
134.5
21
133.5
0
LINE
5
150
100
AcDbEntity
8
Leuchtdiodenposition (zentriert)
6
ByLayer
62
256
370
-1
100
AcDbLine
10
134.5
20
133.5
11
133.5
21
133.5
0
LINE
5
151
100
AcDbEntity
8
Leuchtdiodenposition (zentriert)
6
ByLayer
62
256
370
-1
100
AcDbLine
10
133.5
20
133.5
11
133.5
21
134.5
0
LINE
5
152
100
AcDbEntity
8
Leuchtdiodenposition (zentriert)
6
ByLayer
62
256
370
-1
100
AcDbLine
10
166.5
20
134.5
11
167.5
21
134.5
0
LINE
5
153
100
AcDbEntity
8
Leuchtdiodenposition (zentriert)
6
ByLayer
62
256
370
-1
100
AcDbLine
10
167.5
20
134.5
11
167.5
21
133.5
0
LINE
5
154
100
AcDbEntity
8
Leuchtdiodenposition (zentriert)
6
ByLayer
62
256
370
-1
100
AcDbLine
10
167.5
20
133.5
11
166.5
21
133.5
0
LINE
5
155
100
AcDbEntity
8
Leuchtdiodenposition (zentriert)
6
ByLayer
62
256
370
-1
100
AcDbLine
10
166.5
20
133.5
11
166.5
21
134.5
0
LINE
5
156
100
AcDbEntity
8
Leuchtdiodenposition (zentriert)
6
ByLayer
62
256
370
-1
100
AcDbLine
10
199.5
20
134.5
11
200.5
21
134.5
0
LINE
5
157
100
AcDbEntity
8
Leuchtdiodenposition (zentriert)
6
ByLayer
62
256
370
-1
100
AcDbLine
10
200.5
20
134.5
11
200.5
21
133.5
0
LINE
5
158
100
AcDbEntity
8
Leuchtdiodenposition (zentriert)
6
ByLayer
62
256
370
-1
100
AcDbLine
10
200.5
20
133.5
11
199.5
21
133.5
0
LINE
5
159
100
AcDbEntity
8
Leuchtdiodenposition (zentriert)
6
ByLayer
62
256
370
-1
100
AcDbLine
10
199.5
20
133.5
11
199.5
21
134.5
0
LINE
5
15A
100
AcDbEntity
8
Leuchtdiodenposition (zentriert)
6
ByLayer
62
256
370
-1
100
AcDbLine
10
232.5
20
134.5
11
233.5
21
134.5
0
LINE
5
15B
100
AcDbEntity
8
Leuchtdiodenposition (zentriert)
6
ByLayer
62
256
370
-1
100
AcDbLine
10
233.5
20
134.5
11
233.5
21
133.5
0
LINE
5
15C
100
AcDbEntity
8
Leuchtdiodenposition (zentriert)
6
ByLayer
62
256
370
-1
100
AcDbLine
10
233.5
20
133.5
11
232.5
21
133.5
0
LINE
5
15D
100
AcDbEntity
8
Leuchtdiodenposition (zentriert)
6
ByLayer
62
256
370
-1
100
AcDbLine
10
232.5
20
133.5
11
232.5
21
134.5
0
LINE
5
15E
100
AcDbEntity
8
Leuchtdiodenposition (zentriert)
6
ByLayer
62
256
370
-1
100
AcDbLine
10
265.5
20
134.5
11
266.5
21
134.5
0
LINE
5
15F
100
AcDbEntity
8
Leuchtdiodenposition (zentriert)
6
ByLayer
62
256
370
-1
100
AcDbLine
10
266.5
20
134.5
11
266.5
21
133.5
0
LINE
5
160
100
AcDbEntity
8
Leuchtdiodenposition (zentriert)
6
ByLayer
62
256
370
-1
100
AcDbLine
10
266.5
20
133.5
11
265.5
21
133.5
0
LINE
5
161
100
AcDbEntity
8
Leuchtdiodenposition (zentriert)
6
ByLayer
62
256
370
-1
100
AcDbLine
10
265.5
20
133.5
11
265.5
21
134.5
0
LINE
5
162
100
AcDbEntity
8
Leuchtdiodenposition (zentriert)
6
ByLayer
62
256
370
-1
100
AcDbLine
10
298.5
20
134.5
11
299.5
21
134.5
0
LINE
5
163
100
AcDbEntity
8
Leuchtdiodenposition (zentriert)
6
ByLayer
62
256
370
-1
100
AcDbLine
10
299.5
20
134.5
11
299.5
21
133.5
0
LINE
5
164
100
AcDbEntity
8
Leuchtdiodenposition (zentriert)
6
ByLayer
62
256
370
-1
100
AcDbLine
10
299.5
20
133.5
11
298.5
21
133.5
0
LINE
5
165
100
AcDbEntity
8
Leuchtdiodenposition (zentriert)
6
ByLayer
62
256
370
-1
100
AcDbLine
10
298.5
20
133.5
11
298.5
21
134.5
0
LINE
5
166
100
AcDbEntity
8
Leuchtdiodenposition (zentriert)
6
ByLayer
62
256
370
-1
100
AcDbLine
10
331.5
20
134.5
11
332.5
21
134.5
0
LINE
5
167
100
AcDbEntity
8
Leuchtdiodenposition (zentriert)
6
ByLayer
62
256
370
-1
100
AcDbLine
10
332.5
20
134.5
11
332.5
21
133.5
0
LINE
5
168
100
AcDbEntity
8
Leuchtdiodenposition (zentriert)
6
ByLayer
62
256
370
-1
100
AcDbLine
10
332.5
20
133.5
11
331.5
21
133.5
0
LINE
5
169
100
AcDbEntity
8
Leuchtdiodenposition (zentriert)
6
ByLayer
62
256
370
-1
100
AcDbLine
10
331.5
20
133.5
11
331.5
21
134.5
0
LINE
5
16A
100
AcDbEntity
8
Leuchtdiodenposition (zentriert)
6
ByLayer
62
256
370
-1
100
AcDbLine
10
364.5
20
134.5
11
365.5
21
134.5
0
LINE
5
16B
100
AcDbEntity
8
Leuchtdiodenposition (zentriert)
6
ByLayer
62
256
370
-1
100
AcDbLine
10
365.5
20
134.5
11
365.5
21
133.5
0
LINE
5
16C
100
AcDbEntity
8
Leuchtdiodenposition (zentriert)
6
ByLayer
62
256
370
-1
100
AcDbLine
10
365.5
20
133.5
11
364.5
21
133.5
0
LINE
5
16D
100
AcDbEntity
8
Leuchtdiodenposition (zentriert)
6
ByLayer
62
256
370
-1
100
AcDbLine
10
364.5
20
133.5
11
364.5
21
134.5
0
LINE
5
16E
100
AcDbEntity
8
Leuchtdiodenposition (zentriert)
6
ByLayer
62
256
370
-1
100
AcDbLine
10
34.5
20
167.5
11
35.5
21
167.5
0
LINE
5
16F
100
AcDbEntity
8
Leuchtdiodenposition (zentriert)
6
ByLayer
62
256
370
-1
100
AcDbLine
10
35.5
20
167.5
11
35.5
21
166.5
0
LINE
5
170
100
AcDbEntity
8
Leuchtdiodenposition (zentriert)
6
ByLayer
62
256
370
-1
100
AcDbLine
10
35.5
20
166.5
11
34.5
21
166.5
0
LINE
5
171
100
AcDbEntity
8
Leuchtdiodenposition (zentriert)
6
ByLayer
62
256
370
-1
100
AcDbLine
10
34.5
20
166.5
11
34.5
21
167.5
0
LINE
5
172
100
AcDbEntity
8
Leuchtdiodenposition (zentriert)
6
ByLayer
62
256
370
-1
100
AcDbLine
10
67.5
20
167.5
11
68.5
21
167.5
0
LINE
5
173
100
AcDbEntity
8
Leuchtdiodenposition (zentriert)
6
ByLayer
62
256
370
-1
100
AcDbLine
10
68.5
20
167.5
11
68.5
21
166.5
0
LINE
5
174
100
AcDbEntity
8
Leuchtdiodenposition (zentriert)
6
ByLayer
62
256
370
-1
100
AcDbLine
10
68.5
20
166.5
11
67.5
21
166.5
0
LINE
5
175
100
AcDbEntity
8
Leuchtdiodenposition (zentriert)
6
ByLayer
62
256
370
-1
100
AcDbLine
10
67.5
20
166.5
11
67.5
21
167.5
0
LINE
5
176
100
AcDbEntity
8
Leuchtdiodenposition (zentriert)
6
ByLayer
62
256
370
-1
100
AcDbLine
10
100.5
20
167.5
11
101.5
21
167.5
0
LINE
5
177
100
AcDbEntity
8
Leuchtdiodenposition (zentriert)
6
ByLayer
62
256
370
-1
100
AcDbLine
10
101.5
20
167.5
11
101.5
21
166.5
0
LINE
5
178
100
AcDbEntity
8
Leuchtdiodenposition (zentriert)
6
ByLayer
62
256
370
-1
100
AcDbLine
10
101.5
20
166.5
11
100.5
21
166.5
0
LINE
5
179
100
AcDbEntity
8
Leuchtdiodenposition (zentriert)
6
ByLayer
62
256
370
-1
100
AcDbLine
10
100.5
20
166.5
11
100.5
21
167.5
0
LINE
5
17A
100
AcDbEntity
8
Leuchtdiodenposition (zentriert)
6
ByLayer
62
256
370
-1
100
AcDbLine
10
133.5
20
167.5
11
134.5
21
167.5
0
LINE
5
17B
100
AcDbEntity
8
Leuchtdiodenposition (zentriert)
6
ByLayer
62
256
370
-1
100
AcDbLine
10
134.5
20
167.5
11
134.5
21
166.5
0
LINE
5
17C
100
AcDbEntity
8
Leuchtdiodenposition (zentriert)
6
ByLayer
62
256
370
-1
100
AcDbLine
10
134.5
20
166.5
11
133.5
21
166.5
0
LINE
5
17D
100
AcDbEntity
8
Leuchtdiodenposition (zentriert)
6
ByLayer
62
256
370
-1
100
AcDbLine
10
133.5
20
166.5
11
133.5
21
167.5
0
LINE
5
17E
100
AcDbEntity
8
Leuchtdiodenposition (zentriert)
6
ByLayer
62
256
370
-1
100
AcDbLine
10
166.5
20
167.5
11
167.5
21
167.5
0
LINE
5
17F
100
AcDbEntity
8
Leuchtdiodenposition (zentriert)
6
ByLayer
62
256
370
-1
100
AcDbLine
10
167.5
20
167.5
11
167.5
21
166.5
0
LINE
5
180
100
AcDbEntity
8
Leuchtdiodenposition (zentriert)
6
ByLayer
62
256
370
-1
100
AcDbLine
10
167.5
20
166.5
11
166.5
21
166.5
0
LINE
5
181
100
AcDbEntity
8
Leuchtdiodenposition (zentriert)
6
ByLayer
62
256
370
-1
100
AcDbLine
10
166.5
20
166.5
11
166.5
21
167.5
0
LINE
5
182
100
AcDbEntity
8
Leuchtdiodenposition (zentriert)
6
ByLayer
62
256
370
-1
100
AcDbLine
10
199.5
20
167.5
11
200.5
21
167.5
0
LINE
5
183
100
AcDbEntity
8
Leuchtdiodenposition (zentriert)
6
ByLayer
62
256
370
-1
100
AcDbLine
10
200.5
20
167.5
11
200.5
21
166.5
0
LINE
5
184
100
AcDbEntity
8
Leuchtdiodenposition (zentriert)
6
ByLayer
62
256
370
-1
100
AcDbLine
10
200.5
20
166.5
11
199.5
21
166.5
0
LINE
5
185
100
AcDbEntity
8
Leuchtdiodenposition (zentriert)
6
ByLayer
62
256
370
-1
100
AcDbLine
10
199.5
20
166.5
11
199.5
21
167.5
0
LINE
5
186
100
AcDbEntity
8
Leuchtdiodenposition (zentriert)
6
ByLayer
62
256
370
-1
100
AcDbLine
10
232.5
20
167.5
11
233.5
21
167.5
0
LINE
5
187
100
AcDbEntity
8
Leuchtdiodenposition (zentriert)
6
ByLayer
62
256
370
-1
100
AcDbLine
10
233.5
20
167.5
11
233.5
21
166.5
0
LINE
5
188
100
AcDbEntity
8
Leuchtdiodenposition (zentriert)
6
ByLayer
62
256
370
-1
100
AcDbLine
10
233.5
20
166.5
11
232.5
21
166.5
0
LINE
5
189
100
AcDbEntity
8
Leuchtdiodenposition (zentriert)
6
ByLayer
62
256
370
-1
100
AcDbLine
10
232.5
20
166.5
11
232.5
21
167.5
0
LINE
5
18A
100
AcDbEntity
8
Leuchtdiodenposition (zentriert)
6
ByLayer
62
256
370
-1
100
AcDbLine
10
265.5
20
167.5
11
266.5
21
167.5
0
LINE
5
18B
100
AcDbEntity
8
Leuchtdiodenposition (zentriert)
6
ByLayer
62
256
370
-1
100
AcDbLine
10
266.5
20
167.5
11
266.5
21
166.5
0
LINE
5
18C
100
AcDbEntity
8
Leuchtdiodenposition (zentriert)
6
ByLayer
62
256
370
-1
100
AcDbLine
10
266.5
20
166.5
11
265.5
21
166.5
0
LINE
5
18D
100
AcDbEntity
8
Leuchtdiodenposition (zentriert)
6
ByLayer
62
256
370
-1
100
AcDbLine
10
265.5
20
166.5
11
265.5
21
167.5
0
LINE
5
18E
100
AcDbEntity
8
Leuchtdiodenposition (zentriert)
6
ByLayer
62
256
370
-1
100
AcDbLine
10
298.5
20
167.5
11
299.5
21
167.5
0
LINE
5
18F
100
AcDbEntity
8
Leuchtdiodenposition (zentriert)
6
ByLayer
62
256
370
-1
100
AcDbLine
10
299.5
20
167.5
11
299.5
21
166.5
0
LINE
5
190
100
AcDbEntity
8
Leuchtdiodenposition (zentriert)
6
ByLayer
62
256
370
-1
100
AcDbLine
10
299.5
20
166.5
11
298.5
21
166.5
0
LINE
5
191
100
AcDbEntity
8
Leuchtdiodenposition (zentriert)
6
ByLayer
62
256
370
-1
100
AcDbLine
10
298.5
20
166.5
11
298.5
21
167.5
0
LINE
5
192
100
AcDbEntity
8
Leuchtdiodenposition (zentriert)
6
ByLayer
62
256
370
-1
100
AcDbLine
10
331.5
20
167.5
11
332.5
21
167.5
0
LINE
5
193
100
AcDbEntity
8
Leuchtdiodenposition (zentriert)
6
ByLayer
62
256
370
-1
100
AcDbLine
10
332.5
20
167.5
11
332.5
21
166.5
0
LINE
5
194
100
AcDbEntity
8
Leuchtdiodenposition (zentriert)
6
ByLayer
62
256
370
-1
100
AcDbLine
10
332.5
20
166.5
11
331.5
21
166.5
0
LINE
5
195
100
AcDbEntity
8
Leuchtdiodenposition (zentriert)
6
ByLayer
62
256
370
-1
100
AcDbLine
10
331.5
20
166.5
11
331.5
21
167.5
0
LINE
5
196
100
AcDbEntity
8
Leuchtdiodenposition (zentriert)
6
ByLayer
62
256
370
-1
100
AcDbLine
10
364.5
20
167.5
11
365.5
21
167.5
0
LINE
5
197
100
AcDbEntity
8
Leuchtdiodenposition (zentriert)
6
ByLayer
62
256
370
-1
100
AcDbLine
10
365.5
20
167.5
11
365.5
21
166.5
0
LINE
5
198
100
AcDbEntity
8
Leuchtdiodenposition (zentriert)
6
ByLayer
62
256
370
-1
100
AcDbLine
10
365.5
20
166.5
11
364.5
21
166.5
0
LINE
5
199
100
AcDbEntity
8
Leuchtdiodenposition (zentriert)
6
ByLayer
62
256
370
-1
100
AcDbLine
10
364.5
20
166.5
11
364.5
21
167.5
0
LINE
5
19A
100
AcDbEntity
8
Leuchtdiodenposition (zentriert)
6
ByLayer
62
256
370
-1
100
AcDbLine
10
34.5
20
200.5
11
35.5
21
200.5
0
LINE
5
19B
100
AcDbEntity
8
Leuchtdiodenposition (zentriert)
6
ByLayer
62
256
370
-1
100
AcDbLine
10
35.5
20
200.5
11
35.5
21
199.5
0
LINE
5
19C
100
AcDbEntity
8
Leuchtdiodenposition (zentriert)
6
ByLayer
62
256
370
-1
100
AcDbLine
10
35.5
20
199.5
11
34.5
21
199.5
0
LINE
5
19D
100
AcDbEntity
8
Leuchtdiodenposition (zentriert)
6
ByLayer
62
256
370
-1
100
AcDbLine
10
34.5
20
199.5
11
34.5
21
200.5
0
LINE
5
19E
100
AcDbEntity
8
Leuchtdiodenposition (zentriert)
6
ByLayer
62
256
370
-1
100
AcDbLine
10
67.5
20
200.5
11
68.5
21
200.5
0
LINE
5
19F
100
AcDbEntity
8
Leuchtdiodenposition (zentriert)
6
ByLayer
62
256
370
-1
100
AcDbLine
10
68.5
20
200.5
11
68.5
21
199.5
0
LINE
5
1A0
100
AcDbEntity
8
Leuchtdiodenposition (zentriert)
6
ByLayer
62
256
370
-1
100
AcDbLine
10
68.5
20
199.5
11
67.5
21
199.5
0
LINE
5
1A1
100
AcDbEntity
8
Leuchtdiodenposition (zentriert)
6
ByLayer
62
256
370
-1
100
AcDbLine
10
67.5
20
199.5
11
67.5
21
200.5
0
LINE
5
1A2
100
AcDbEntity
8
Leuchtdiodenposition (zentriert)
6
ByLayer
62
256
370
-1
100
AcDbLine
10
100.5
20
200.5
11
101.5
21
200.5
0
LINE
5
1A3
100
AcDbEntity
8
Leuchtdiodenposition (zentriert)
6
ByLayer
62
256
370
-1
100
AcDbLine
10
101.5
20
200.5
11
101.5
21
199.5
0
LINE
5
1A4
100
AcDbEntity
8
Leuchtdiodenposition (zentriert)
6
ByLayer
62
256
370
-1
100
AcDbLine
10
101.5
20
199.5
11
100.5
21
199.5
0
LINE
5
1A5
100
AcDbEntity
8
Leuchtdiodenposition (zentriert)
6
ByLayer
62
256
370
-1
100
AcDbLine
10
100.5
20
199.5
11
100.5
21
200.5
0
LINE
5
1A6
100
AcDbEntity
8
Leuchtdiodenposition (zentriert)
6
ByLayer
62
256
370
-1
100
AcDbLine
10
133.5
20
200.5
11
134.5
21
200.5
0
LINE
5
1A7
100
AcDbEntity
8
Leuchtdiodenposition (zentriert)
6
ByLayer
62
256
370
-1
100
AcDbLine
10
134.5
20
200.5
11
134.5
21
199.5
0
LINE
5
1A8
100
AcDbEntity
8
Leuchtdiodenposition (zentriert)
6
ByLayer
62
256
370
-1
100
AcDbLine
10
134.5
20
199.5
11
133.5
21
199.5
0
LINE
5
1A9
100
AcDbEntity
8
Leuchtdiodenposition (zentriert)
6
ByLayer
62
256
370
-1
100
AcDbLine
10
133.5
20
199.5
11
133.5
21
200.5
0
LINE
5
1AA
100
AcDbEntity
8
Leuchtdiodenposition (zentriert)
6
ByLayer
62
256
370
-1
100
AcDbLine
10
166.5
20
200.5
11
167.5
21
200.5
0
LINE
5
1AB
100
AcDbEntity
8
Leuchtdiodenposition (zentriert)
6
ByLayer
62
256
370
-1
100
AcDbLine
10
167.5
20
200.5
11
167.5
21
199.5
0
LINE
5
1AC
100
AcDbEntity
8
Leuchtdiodenposition (zentriert)
6
ByLayer
62
256
370
-1
100
AcDbLine
10
167.5
20
199.5
11
166.5
21
199.5
0
LINE
5
1AD
100
AcDbEntity
8
Leuchtdiodenposition (zentriert)
6
ByLayer
62
256
370
-1
100
AcDbLine
10
166.5
20
199.5
11
166.5
21
200.5
0
LINE
5
1AE
100
AcDbEntity
8
Leuchtdiodenposition (zentriert)
6
ByLayer
62
256
370
-1
100
AcDbLine
10
199.5
20
200.5
11
200.5
21
200.5
0
LINE
5
1AF
100
AcDbEntity
8
Leuchtdiodenposition (zentriert)
6
ByLayer
62
256
370
-1
100
AcDbLine
10
200.5
20
200.5
11
200.5
21
199.5
0
LINE
5
1B0
100
AcDbEntity
8
Leuchtdiodenposition (zentriert)
6
ByLayer
62
256
370
-1
100
AcDbLine
10
200.5
20
199.5
11
199.5
21
199.5
0
LINE
5
1B1
100
AcDbEntity
8
Leuchtdiodenposition (zentriert)
6
ByLayer
62
256
370
-1
100
AcDbLine
10
199.5
20
199.5
11
199.5
21
200.5
0
LINE
5
1B2
100
AcDbEntity
8
Leuchtdiodenposition (zentriert)
6
ByLayer
62
256
370
-1
100
AcDbLine
10
232.5
20
200.5
11
233.5
21
200.5
0
LINE
5
1B3
100
AcDbEntity
8
Leuchtdiodenposition (zentriert)
6
ByLayer
62
256
370
-1
100
AcDbLine
10
233.5
20
200.5
11
233.5
21
199.5
0
LINE
5
1B4
100
AcDbEntity
8
Leuchtdiodenposition (zentriert)
6
ByLayer
62
256
370
-1
100
AcDbLine
10
233.5
20
199.5
11
232.5
21
199.5
0
LINE
5
1B5
100
AcDbEntity
8
Leuchtdiodenposition (zentriert)
6
ByLayer
62
256
370
-1
100
AcDbLine
10
232.5
20
199.5
11
232.5
21
200.5
0
LINE
5
1B6
100
AcDbEntity
8
Leuchtdiodenposition (zentriert)
6
ByLayer
62
256
370
-1
100
AcDbLine
10
265.5
20
200.5
11
266.5
21
200.5
0
LINE
5
1B7
100
AcDbEntity
8
Leuchtdiodenposition (zentriert)
6
ByLayer
62
256
370
-1
100
AcDbLine
10
266.5
20
200.5
11
266.5
21
199.5
0
LINE
5
1B8
100
AcDbEntity
8
Leuchtdiodenposition (zentriert)
6
ByLayer
62
256
370
-1
100
AcDbLine
10
266.5
20
199.5
11
265.5
21
199.5
0
LINE
5
1B9
100
AcDbEntity
8
Leuchtdiodenposition (zentriert)
6
ByLayer
62
256
370
-1
100
AcDbLine
10
265.5
20
199.5
11
265.5
21
200.5
0
LINE
5
1BA
100
AcDbEntity
8
Leuchtdiodenposition (zentriert)
6
ByLayer
62
256
370
-1
100
AcDbLine
10
298.5
20
200.5
11
299.5
21
200.5
0
LINE
5
1BB
100
AcDbEntity
8
Leuchtdiodenposition (zentriert)
6
ByLayer
62
256
370
-1
100
AcDbLine
10
299.5
20
200.5
11
299.5
21
199.5
0
LINE
5
1BC
100
AcDbEntity
8
Leuchtdiodenposition (zentriert)
6
ByLayer
62
256
370
-1
100
AcDbLine
10
299.5
20
199.5
11
298.5
21
199.5
0
LINE
5
1BD
100
AcDbEntity
8
Leuchtdiodenposition (zentriert)
6
ByLayer
62
256
370
-1
100
AcDbLine
10
298.5
20
199.5
11
298.5
21
200.5
0
LINE
5
1BE
100
AcDbEntity
8
Leuchtdiodenposition (zentriert)
6
ByLayer
62
256
370
-1
100
AcDbLine
10
331.5
20
200.5
11
332.5
21
200.5
0
LINE
5
1BF
100
AcDbEntity
8
Leuchtdiodenposition (zentriert)
6
ByLayer
62
256
370
-1
100
AcDbLine
10
332.5
20
200.5
11
332.5
21
199.5
0
LINE
5
1C0
100
AcDbEntity
8
Leuchtdiodenposition (zentriert)
6
ByLayer
62
256
370
-1
100
AcDbLine
10
332.5
20
199.5
11
331.5
21
199.5
0
LINE
5
1C1
100
AcDbEntity
8
Leuchtdiodenposition (zentriert)
6
ByLayer
62
256
370
-1
100
AcDbLine
10
331.5
20
199.5
11
331.5
21
200.5
0
LINE
5
1C2
100
AcDbEntity
8
Leuchtdiodenposition (zentriert)
6
ByLayer
62
256
370
-1
100
AcDbLine
10
364.5
20
200.5
11
365.5
21
200.5
0
LINE
5
1C3
100
AcDbEntity
8
Leuchtdiodenposition (zentriert)
6
ByLayer
62
256
370
-1
100
AcDbLine
10
365.5
20
200.5
11
365.5
21
199.5
0
LINE
5
1C4
100
AcDbEntity
8
Leuchtdiodenposition (zentriert)
6
ByLayer
62
256
370
-1
100
AcDbLine
10
365.5
20
199.5
11
364.5
21
199.5
0
LINE
5
1C5
100
AcDbEntity
8
Leuchtdiodenposition (zentriert)
6
ByLayer
62
256
370
-1
100
AcDbLine
10
364.5
20
199.5
11
364.5
21
200.5
0
LINE
5
1C6
100
AcDbEntity
8
Leuchtdiodenposition (zentriert)
6
ByLayer
62
256
370
-1
100
AcDbLine
10
34.5
20
233.5
11
35.5
21
233.5
0
LINE
5
1C7
100
AcDbEntity
8
Leuchtdiodenposition (zentriert)
6
ByLayer
62
256
370
-1
100
AcDbLine
10
35.5
20
233.5
11
35.5
21
232.5
0
LINE
5
1C8
100
AcDbEntity
8
Leuchtdiodenposition (zentriert)
6
ByLayer
62
256
370
-1
100
AcDbLine
10
35.5
20
232.5
11
34.5
21
232.5
0
LINE
5
1C9
100
AcDbEntity
8
Leuchtdiodenposition (zentriert)
6
ByLayer
62
256
370
-1
100
AcDbLine
10
34.5
20
232.5
11
34.5
21
233.5
0
LINE
5
1CA
100
AcDbEntity
8
Leuchtdiodenposition (zentriert)
6
ByLayer
62
256
370
-1
100
AcDbLine
10
67.5
20
233.5
11
68.5
21
233.5
0
LINE
5
1CB
100
AcDbEntity
8
Leuchtdiodenposition (zentriert)
6
ByLayer
62
256
370
-1
100
AcDbLine
10
68.5
20
233.5
11
68.5
21
232.5
0
LINE
5
1CC
100
AcDbEntity
8
Leuchtdiodenposition (zentriert)
6
ByLayer
62
256
370
-1
100
AcDbLine
10
68.5
20
232.5
11
67.5
21
232.5
0
LINE
5
1CD
100
AcDbEntity
8
Leuchtdiodenposition (zentriert)
6
ByLayer
62
256
370
-1
100
AcDbLine
10
67.5
20
232.5
11
67.5
21
233.5
0
LINE
5
1CE
100
AcDbEntity
8
Leuchtdiodenposition (zentriert)
6
ByLayer
62
256
370
-1
100
AcDbLine
10
100.5
20
233.5
11
101.5
21
233.5
0
LINE
5
1CF
100
AcDbEntity
8
Leuchtdiodenposition (zentriert)
6
ByLayer
62
256
370
-1
100
AcDbLine
10
101.5
20
233.5
11
101.5
21
232.5
0
LINE
5
1D0
100
AcDbEntity
8
Leuchtdiodenposition (zentriert)
6
ByLayer
62
256
370
-1
100
AcDbLine
10
101.5
20
232.5
11
100.5
21
232.5
0
LINE
5
1D1
100
AcDbEntity
8
Leuchtdiodenposition (zentriert)
6
ByLayer
62
256
370
-1
100
AcDbLine
10
100.5
20
232.5
11
100.5
21
233.5
0
LINE
5
1D2
100
AcDbEntity
8
Leuchtdiodenposition (zentriert)
6
ByLayer
62
256
370
-1
100
AcDbLine
10
133.5
20
233.5
11
134.5
21
233.5
0
LINE
5
1D3
100
AcDbEntity
8
Leuchtdiodenposition (zentriert)
6
ByLayer
62
256
370
-1
100
AcDbLine
10
134.5
20
233.5
11
134.5
21
232.5
0
LINE
5
1D4
100
AcDbEntity
8
Leuchtdiodenposition (zentriert)
6
ByLayer
62
256
370
-1
100
AcDbLine
10
134.5
20
232.5
11
133.5
21
232.5
0
LINE
5
1D5
100
AcDbEntity
8
Leuchtdiodenposition (zentriert)
6
ByLayer
62
256
370
-1
100
AcDbLine
10
133.5
20
232.5
11
133.5
21
233.5
0
LINE
5
1D6
100
AcDbEntity
8
Leuchtdiodenposition (zentriert)
6
ByLayer
62
256
370
-1
100
AcDbLine
10
166.5
20
233.5
11
167.5
21
233.5
0
LINE
5
1D7
100
AcDbEntity
8
Leuchtdiodenposition (zentriert)
6
ByLayer
62
256
370
-1
100
AcDbLine
10
167.5
20
233.5
11
167.5
21
232.5
0
LINE
5
1D8
100
AcDbEntity
8
Leuchtdiodenposition (zentriert)
6
ByLayer
62
256
370
-1
100
AcDbLine
10
167.5
20
232.5
11
166.5
21
232.5
0
LINE
5
1D9
100
AcDbEntity
8
Leuchtdiodenposition (zentriert)
6
ByLayer
62
256
370
-1
100
AcDbLine
10
166.5
20
232.5
11
166.5
21
233.5
0
LINE
5
1DA
100
AcDbEntity
8
Leuchtdiodenposition (zentriert)
6
ByLayer
62
256
370
-1
100
AcDbLine
10
199.5
20
233.5
11
200.5
21
233.5
0
LINE
5
1DB
100
AcDbEntity
8
Leuchtdiodenposition (zentriert)
6
ByLayer
62
256
370
-1
100
AcDbLine
10
200.5
20
233.5
11
200.5
21
232.5
0
LINE
5
1DC
100
AcDbEntity
8
Leuchtdiodenposition (zentriert)
6
ByLayer
62
256
370
-1
100
AcDbLine
10
200.5
20
232.5
11
199.5
21
232.5
0
LINE
5
1DD
100
AcDbEntity
8
Leuchtdiodenposition (zentriert)
6
ByLayer
62
256
370
-1
100
AcDbLine
10
199.5
20
232.5
11
199.5
21
233.5
0
LINE
5
1DE
100
AcDbEntity
8
Leuchtdiodenposition (zentriert)
6
ByLayer
62
256
370
-1
100
AcDbLine
10
232.5
20
233.5
11
233.5
21
233.5
0
LINE
5
1DF
100
AcDbEntity
8
Leuchtdiodenposition (zentriert)
6
ByLayer
62
256
370
-1
100
AcDbLine
10
233.5
20
233.5
11
233.5
21
232.5
0
LINE
5
1E0
100
AcDbEntity
8
Leuchtdiodenposition (zentriert)
6
ByLayer
62
256
370
-1
100
AcDbLine
10
233.5
20
232.5
11
232.5
21
232.5
0
LINE
5
1E1
100
AcDbEntity
8
Leuchtdiodenposition (zentriert)
6
ByLayer
62
256
370
-1
100
AcDbLine
10
232.5
20
232.5
11
232.5
21
233.5
0
LINE
5
1E2
100
AcDbEntity
8
Leuchtdiodenposition (zentriert)
6
ByLayer
62
256
370
-1
100
AcDbLine
10
265.5
20
233.5
11
266.5
21
233.5
0
LINE
5
1E3
100
AcDbEntity
8
Leuchtdiodenposition (zentriert)
6
ByLayer
62
256
370
-1
100
AcDbLine
10
266.5
20
233.5
11
266.5
21
232.5
0
LINE
5
1E4
100
AcDbEntity
8
Leuchtdiodenposition (zentriert)
6
ByLayer
62
256
370
-1
100
AcDbLine
10
266.5
20
232.5
11
265.5
21
232.5
0
LINE
5
1E5
100
AcDbEntity
8
Leuchtdiodenposition (zentriert)
6
ByLayer
62
256
370
-1
100
AcDbLine
10
265.5
20
232.5
11
265.5
21
233.5
0
LINE
5
1E6
100
AcDbEntity
8
Leuchtdiodenposition (zentriert)
6
ByLayer
62
256
370
-1
100
AcDbLine
10
298.5
20
233.5
11
299.5
21
233.5
0
LINE
5
1E7
100
AcDbEntity
8
Leuchtdiodenposition (zentriert)
6
ByLayer
62
256
370
-1
100
AcDbLine
10
299.5
20
233.5
11
299.5
21
232.5
0
LINE
5
1E8
100
AcDbEntity
8
Leuchtdiodenposition (zentriert)
6
ByLayer
62
256
370
-1
100
AcDbLine
10
299.5
20
232.5
11
298.5
21
232.5
0
LINE
5
1E9
100
AcDbEntity
8
Leuchtdiodenposition (zentriert)
6
ByLayer
62
256
370
-1
100
AcDbLine
10
298.5
20
232.5
11
298.5
21
233.5
0
LINE
5
1EA
100
AcDbEntity
8
Leuchtdiodenposition (zentriert)
6
ByLayer
62
256
370
-1
100
AcDbLine
10
331.5
20
233.5
11
332.5
21
233.5
0
LINE
5
1EB
100
AcDbEntity
8
Leuchtdiodenposition (zentriert)
6
ByLayer
62
256
370
-1
100
AcDbLine
10
332.5
20
233.5
11
332.5
21
232.5
0
LINE
5
1EC
100
AcDbEntity
8
Leuchtdiodenposition (zentriert)
6
ByLayer
62
256
370
-1
100
AcDbLine
10
332.5
20
232.5
11
331.5
21
232.5
0
LINE
5
1ED
100
AcDbEntity
8
Leuchtdiodenposition (zentriert)
6
ByLayer
62
256
370
-1
100
AcDbLine
10
331.5
20
232.5
11
331.5
21
233.5
0
LINE
5
1EE
100
AcDbEntity
8
Leuchtdiodenposition (zentriert)
6
ByLayer
62
256
370
-1
100
AcDbLine
10
364.5
20
233.5
11
365.5
21
233.5
0
LINE
5
1EF
100
AcDbEntity
8
Leuchtdiodenposition (zentriert)
6
ByLayer
62
256
370
-1
100
AcDbLine
10
365.5
20
233.5
11
365.5
21
232.5
0
LINE
5
1F0
100
AcDbEntity
8
Leuchtdiodenposition (zentriert)
6
ByLayer
62
256
370
-1
100
AcDbLine
10
365.5
20
232.5
11
364.5
21
232.5
0
LINE
5
1F1
100
AcDbEntity
8
Leuchtdiodenposition (zentriert)
6
ByLayer
62
256
370
-1
100
AcDbLine
10
364.5
20
232.5
11
364.5
21
233.5
0
LINE
5
1F2
100
AcDbEntity
8
Leuchtdiodenposition (zentriert)
6
ByLayer
62
256
370
-1
100
AcDbLine
10
34.5
20
266.5
11
35.5
21
266.5
0
LINE
5
1F3
100
AcDbEntity
8
Leuchtdiodenposition (zentriert)
6
ByLayer
62
256
370
-1
100
AcDbLine
10
35.5
20
266.5
11
35.5
21
265.5
0
LINE
5
1F4
100
AcDbEntity
8
Leuchtdiodenposition (zentriert)
6
ByLayer
62
256
370
-1
100
AcDbLine
10
35.5
20
265.5
11
34.5
21
265.5
0
LINE
5
1F5
100
AcDbEntity
8
Leuchtdiodenposition (zentriert)
6
ByLayer
62
256
370
-1
100
AcDbLine
10
34.5
20
265.5
11
34.5
21
266.5
0
LINE
5
1F6
100
AcDbEntity
8
Leuchtdiodenposition (zentriert)
6
ByLayer
62
256
370
-1
100
AcDbLine
10
67.5
20
266.5
11
68.5
21
266.5
0
LINE
5
1F7
100
AcDbEntity
8
Leuchtdiodenposition (zentriert)
6
ByLayer
62
256
370
-1
100
AcDbLine
10
68.5
20
266.5
11
68.5
21
265.5
0
LINE
5
1F8
100
AcDbEntity
8
Leuchtdiodenposition (zentriert)
6
ByLayer
62
256
370
-1
100
AcDbLine
10
68.5
20
265.5
11
67.5
21
265.5
0
LINE
5
1F9
100
AcDbEntity
8
Leuchtdiodenposition (zentriert)
6
ByLayer
62
256
370
-1
100
AcDbLine
10
67.5
20
265.5
11
67.5
21
266.5
0
LINE
5
1FA
100
AcDbEntity
8
Leuchtdiodenposition (zentriert)
6
ByLayer
62
256
370
-1
100
AcDbLine
10
100.5
20
266.5
11
101.5
21
266.5
0
LINE
5
1FB
100
AcDbEntity
8
Leuchtdiodenposition (zentriert)
6
ByLayer
62
256
370
-1
100
AcDbLine
10
101.5
20
266.5
11
101.5
21
265.5
0
LINE
5
1FC
100
AcDbEntity
8
Leuchtdiodenposition (zentriert)
6
ByLayer
62
256
370
-1
100
AcDbLine
10
101.5
20
265.5
11
100.5
21
265.5
0
LINE
5
1FD
100
AcDbEntity
8
Leuchtdiodenposition (zentriert)
6
ByLayer
62
256
370
-1
100
AcDbLine
10
100.5
20
265.5
11
100.5
21
266.5
0
LINE
5
1FE
100
AcDbEntity
8
Leuchtdiodenposition (zentriert)
6
ByLayer
62
256
370
-1
100
AcDbLine
10
133.5
20
266.5
11
134.5
21
266.5
0
LINE
5
1FF
100
AcDbEntity
8
Leuchtdiodenposition (zentriert)
6
ByLayer
62
256
370
-1
100
AcDbLine
10
134.5
20
266.5
11
134.5
21
265.5
0
LINE
5
200
100
AcDbEntity
8
Leuchtdiodenposition (zentriert)
6
ByLayer
62
256
370
-1
100
AcDbLine
10
134.5
20
265.5
11
133.5
21
265.5
0
LINE
5
201
100
AcDbEntity
8
Leuchtdiodenposition (zentriert)
6
ByLayer
62
256
370
-1
100
AcDbLine
10
133.5
20
265.5
11
133.5
21
266.5
0
LINE
5
202
100
AcDbEntity
8
Leuchtdiodenposition (zentriert)
6
ByLayer
62
256
370
-1
100
AcDbLine
10
166.5
20
266.5
11
167.5
21
266.5
0
LINE
5
203
100
AcDbEntity
8
Leuchtdiodenposition (zentriert)
6
ByLayer
62
256
370
-1
100
AcDbLine
10
167.5
20
266.5
11
167.5
21
265.5
0
LINE
5
204
100
AcDbEntity
8
Leuchtdiodenposition (zentriert)
6
ByLayer
62
256
370
-1
100
AcDbLine
10
167.5
20
265.5
11
166.5
21
265.5
0
LINE
5
205
100
AcDbEntity
8
Leuchtdiodenposition (zentriert)
6
ByLayer
62
256
370
-1
100
AcDbLine
10
166.5
20
265.5
11
166.5
21
266.5
0
LINE
5
206
100
AcDbEntity
8
Leuchtdiodenposition (zentriert)
6
ByLayer
62
256
370
-1
100
AcDbLine
10
199.5
20
266.5
11
200.5
21
266.5
0
LINE
5
207
100
AcDbEntity
8
Leuchtdiodenposition (zentriert)
6
ByLayer
62
256
370
-1
100
AcDbLine
10
200.5
20
266.5
11
200.5
21
265.5
0
LINE
5
208
100
AcDbEntity
8
Leuchtdiodenposition (zentriert)
6
ByLayer
62
256
370
-1
100
AcDbLine
10
200.5
20
265.5
11
199.5
21
265.5
0
LINE
5
209
100
AcDbEntity
8
Leuchtdiodenposition (zentriert)
6
ByLayer
62
256
370
-1
100
AcDbLine
10
199.5
20
265.5
11
199.5
21
266.5
0
LINE
5
20A
100
AcDbEntity
8
Leuchtdiodenposition (zentriert)
6
ByLayer
62
256
370
-1
100
AcDbLine
10
232.5
20
266.5
11
233.5
21
266.5
0
LINE
5
20B
100
AcDbEntity
8
Leuchtdiodenposition (zentriert)
6
ByLayer
62
256
370
-1
100
AcDbLine
10
233.5
20
266.5
11
233.5
21
265.5
0
LINE
5
20C
100
AcDbEntity
8
Leuchtdiodenposition (zentriert)
6
ByLayer
62
256
370
-1
100
AcDbLine
10
233.5
20
265.5
11
232.5
21
265.5
0
LINE
5
20D
100
AcDbEntity
8
Leuchtdiodenposition (zentriert)
6
ByLayer
62
256
370
-1
100
AcDbLine
10
232.5
20
265.5
11
232.5
21
266.5
0
LINE
5
20E
100
AcDbEntity
8
Leuchtdiodenposition (zentriert)
6
ByLayer
62
256
370
-1
100
AcDbLine
10
265.5
20
266.5
11
266.5
21
266.5
0
LINE
5
20F
100
AcDbEntity
8
Leuchtdiodenposition (zentriert)
6
ByLayer
62
256
370
-1
100
AcDbLine
10
266.5
20
266.5
11
266.5
21
265.5
0
LINE
5
210
100
AcDbEntity
8
Leuchtdiodenposition (zentriert)
6
ByLayer
62
256
370
-1
100
AcDbLine
10
266.5
20
265.5
11
265.5
21
265.5
0
LINE
5
211
100
AcDbEntity
8
Leuchtdiodenposition (zentriert)
6
ByLayer
62
256
370
-1
100
AcDbLine
10
265.5
20
265.5
11
265.5
21
266.5
0
LINE
5
212
100
AcDbEntity
8
Leuchtdiodenposition (zentriert)
6
ByLayer
62
256
370
-1
100
AcDbLine
10
298.5
20
266.5
11
299.5
21
266.5
0
LINE
5
213
100
AcDbEntity
8
Leuchtdiodenposition (zentriert)
6
ByLayer
62
256
370
-1
100
AcDbLine
10
299.5
20
266.5
11
299.5
21
265.5
0
LINE
5
214
100
AcDbEntity
8
Leuchtdiodenposition (zentriert)
6
ByLayer
62
256
370
-1
100
AcDbLine
10
299.5
20
265.5
11
298.5
21
265.5
0
LINE
5
215
100
AcDbEntity
8
Leuchtdiodenposition (zentriert)
6
ByLayer
62
256
370
-1
100
AcDbLine
10
298.5
20
265.5
11
298.5
21
266.5
0
LINE
5
216
100
AcDbEntity
8
Leuchtdiodenposition (zentriert)
6
ByLayer
62
256
370
-1
100
AcDbLine
10
331.5
20
266.5
11
332.5
21
266.5
0
LINE
5
217
100
AcDbEntity
8
Leuchtdiodenposition (zentriert)
6
ByLayer
62
256
370
-1
100
AcDbLine
10
332.5
20
266.5
11
332.5
21
265.5
0
LINE
5
218
100
AcDbEntity
8
Leuchtdiodenposition (zentriert)
6
ByLayer
62
256
370
-1
100
AcDbLine
10
332.5
20
265.5
11
331.5
21
265.5
0
LINE
5
219
100
AcDbEntity
8
Leuchtdiodenposition (zentriert)
6
ByLayer
62
256
370
-1
100
AcDbLine
10
331.5
20
265.5
11
331.5
21
266.5
0
LINE
5
21A
100
AcDbEntity
8
Leuchtdiodenposition (zentriert)
6
ByLayer
62
256
370
-1
100
AcDbLine
10
364.5
20
266.5
11
365.5
21
266.5
0
LINE
5
21B
100
AcDbEntity
8
Leuchtdiodenposition (zentriert)
6
ByLayer
62
256
370
-1
100
AcDbLine
10
365.5
20
266.5
11
365.5
21
265.5
0
LINE
5
21C
100
AcDbEntity
8
Leuchtdiodenposition (zentriert)
6
ByLayer
62
256
370
-1
100
AcDbLine
10
365.5
20
265.5
11
364.5
21
265.5
0
LINE
5
21D
100
AcDbEntity
8
Leuchtdiodenposition (zentriert)
6
ByLayer
62
256
370
-1
100
AcDbLine
10
364.5
20
265.5
11
364.5
21
266.5
0
LINE
5
21E
100
AcDbEntity
8
Leuchtdiodenposition (zentriert)
6
ByLayer
62
256
370
-1
100
AcDbLine
10
34.5
20
299.5
11
35.5
21
299.5
0
LINE
5
21F
100
AcDbEntity
8
Leuchtdiodenposition (zentriert)
6
ByLayer
62
256
370
-1
100
AcDbLine
10
35.5
20
299.5
11
35.5
21
298.5
0
LINE
5
220
100
AcDbEntity
8
Leuchtdiodenposition (zentriert)
6
ByLayer
62
256
370
-1
100
AcDbLine
10
35.5
20
298.5
11
34.5
21
298.5
0
LINE
5
221
100
AcDbEntity
8
Leuchtdiodenposition (zentriert)
6
ByLayer
62
256
370
-1
100
AcDbLine
10
34.5
20
298.5
11
34.5
21
299.5
0
LINE
5
222
100
AcDbEntity
8
Leuchtdiodenposition (zentriert)
6
ByLayer
62
256
370
-1
100
AcDbLine
10
67.5
20
299.5
11
68.5
21
299.5
0
LINE
5
223
100
AcDbEntity
8
Leuchtdiodenposition (zentriert)
6
ByLayer
62
256
370
-1
100
AcDbLine
10
68.5
20
299.5
11
68.5
21
298.5
0
LINE
5
224
100
AcDbEntity
8
Leuchtdiodenposition (zentriert)
6
ByLayer
62
256
370
-1
100
AcDbLine
10
68.5
20
298.5
11
67.5
21
298.5
0
LINE
5
225
100
AcDbEntity
8
Leuchtdiodenposition (zentriert)
6
ByLayer
62
256
370
-1
100
AcDbLine
10
67.5
20
298.5
11
67.5
21
299.5
0
LINE
5
226
100
AcDbEntity
8
Leuchtdiodenposition (zentriert)
6
ByLayer
62
256
370
-1
100
AcDbLine
10
100.5
20
299.5
11
101.5
21
299.5
0
LINE
5
227
100
AcDbEntity
8
Leuchtdiodenposition (zentriert)
6
ByLayer
62
256
370
-1
100
AcDbLine
10
101.5
20
299.5
11
101.5
21
298.5
0
LINE
5
228
100
AcDbEntity
8
Leuchtdiodenposition (zentriert)
6
ByLayer
62
256
370
-1
100
AcDbLine
10
101.5
20
298.5
11
100.5
21
298.5
0
LINE
5
229
100
AcDbEntity
8
Leuchtdiodenposition (zentriert)
6
ByLayer
62
256
370
-1
100
AcDbLine
10
100.5
20
298.5
11
100.5
21
299.5
0
LINE
5
22A
100
AcDbEntity
8
Leuchtdiodenposition (zentriert)
6
ByLayer
62
256
370
-1
100
AcDbLine
10
133.5
20
299.5
11
134.5
21
299.5
0
LINE
5
22B
100
AcDbEntity
8
Leuchtdiodenposition (zentriert)
6
ByLayer
62
256
370
-1
100
AcDbLine
10
134.5
20
299.5
11
134.5
21
298.5
0
LINE
5
22C
100
AcDbEntity
8
Leuchtdiodenposition (zentriert)
6
ByLayer
62
256
370
-1
100
AcDbLine
10
134.5
20
298.5
11
133.5
21
298.5
0
LINE
5
22D
100
AcDbEntity
8
Leuchtdiodenposition (zentriert)
6
ByLayer
62
256
370
-1
100
AcDbLine
10
133.5
20
298.5
11
133.5
21
299.5
0
LINE
5
22E
100
AcDbEntity
8
Leuchtdiodenposition (zentriert)
6
ByLayer
62
256
370
-1
100
AcDbLine
10
166.5
20
299.5
11
167.5
21
299.5
0
LINE
5
22F
100
AcDbEntity
8
Leuchtdiodenposition (zentriert)
6
ByLayer
62
256
370
-1
100
AcDbLine
10
167.5
20
299.5
11
167.5
21
298.5
0
LINE
5
230
100
AcDbEntity
8
Leuchtdiodenposition (zentriert)
6
ByLayer
62
256
370
-1
100
AcDbLine
10
167.5
20
298.5
11
166.5
21
298.5
0
LINE
5
231
100
AcDbEntity
8
Leuchtdiodenposition (zentriert)
6
ByLayer
62
256
370
-1
100
AcDbLine
10
166.5
20
298.5
11
166.5
21
299.5
0
LINE
5
232
100
AcDbEntity
8
Leuchtdiodenposition (zentriert)
6
ByLayer
62
256
370
-1
100
AcDbLine
10
199.5
20
299.5
11
200.5
21
299.5
0
LINE
5
233
100
AcDbEntity
8
Leuchtdiodenposition (zentriert)
6
ByLayer
62
256
370
-1
100
AcDbLine
10
200.5
20
299.5
11
200.5
21
298.5
0
LINE
5
234
100
AcDbEntity
8
Leuchtdiodenposition (zentriert)
6
ByLayer
62
256
370
-1
100
AcDbLine
10
200.5
20
298.5
11
199.5
21
298.5
0
LINE
5
235
100
AcDbEntity
8
Leuchtdiodenposition (zentriert)
6
ByLayer
62
256
370
-1
100
AcDbLine
10
199.5
20
298.5
11
199.5
21
299.5
0
LINE
5
236
100
AcDbEntity
8
Leuchtdiodenposition (zentriert)
6
ByLayer
62
256
370
-1
100
AcDbLine
10
232.5
20
299.5
11
233.5
21
299.5
0
LINE
5
237
100
AcDbEntity
8
Leuchtdiodenposition (zentriert)
6
ByLayer
62
256
370
-1
100
AcDbLine
10
233.5
20
299.5
11
233.5
21
298.5
0
LINE
5
238
100
AcDbEntity
8
Leuchtdiodenposition (zentriert)
6
ByLayer
62
256
370
-1
100
AcDbLine
10
233.5
20
298.5
11
232.5
21
298.5
0
LINE
5
239
100
AcDbEntity
8
Leuchtdiodenposition (zentriert)
6
ByLayer
62
256
370
-1
100
AcDbLine
10
232.5
20
298.5
11
232.5
21
299.5
0
LINE
5
23A
100
AcDbEntity
8
Leuchtdiodenposition (zentriert)
6
ByLayer
62
256
370
-1
100
AcDbLine
10
265.5
20
299.5
11
266.5
21
299.5
0
LINE
5
23B
100
AcDbEntity
8
Leuchtdiodenposition (zentriert)
6
ByLayer
62
256
370
-1
100
AcDbLine
10
266.5
20
299.5
11
266.5
21
298.5
0
LINE
5
23C
100
AcDbEntity
8
Leuchtdiodenposition (zentriert)
6
ByLayer
62
256
370
-1
100
AcDbLine
10
266.5
20
298.5
11
265.5
21
298.5
0
LINE
5
23D
100
AcDbEntity
8
Leuchtdiodenposition (zentriert)
6
ByLayer
62
256
370
-1
100
AcDbLine
10
265.5
20
298.5
11
265.5
21
299.5
0
LINE
5
23E
100
AcDbEntity
8
Leuchtdiodenposition (zentriert)
6
ByLayer
62
256
370
-1
100
AcDbLine
10
298.5
20
299.5
11
299.5
21
299.5
0
LINE
5
23F
100
AcDbEntity
8
Leuchtdiodenposition (zentriert)
6
ByLayer
62
256
370
-1
100
AcDbLine
10
299.5
20
299.5
11
299.5
21
298.5
0
LINE
5
240
100
AcDbEntity
8
Leuchtdiodenposition (zentriert)
6
ByLayer
62
256
370
-1
100
AcDbLine
10
299.5
20
298.5
11
298.5
21
298.5
0
LINE
5
241
100
AcDbEntity
8
Leuchtdiodenposition (zentriert)
6
ByLayer
62
256
370
-1
100
AcDbLine
10
298.5
20
298.5
11
298.5
21
299.5
0
LINE
5
242
100
AcDbEntity
8
Leuchtdiodenposition (zentriert)
6
ByLayer
62
256
370
-1
100
AcDbLine
10
331.5
20
299.5
11
332.5
21
299.5
0
LINE
5
243
100
AcDbEntity
8
Leuchtdiodenposition (zentriert)
6
ByLayer
62
256
370
-1
100
AcDbLine
10
332.5
20
299.5
11
332.5
21
298.5
0
LINE
5
244
100
AcDbEntity
8
Leuchtdiodenposition (zentriert)
6
ByLayer
62
256
370
-1
100
AcDbLine
10
332.5
20
298.5
11
331.5
21
298.5
0
LINE
5
245
100
AcDbEntity
8
Leuchtdiodenposition (zentriert)
6
ByLayer
62
256
370
-1
100
AcDbLine
10
331.5
20
298.5
11
331.5
21
299.5
0
LINE
5
246
100
AcDbEntity
8
Leuchtdiodenposition (zentriert)
6
ByLayer
62
256
370
-1
100
AcDbLine
10
364.5
20
299.5
11
365.5
21
299.5
0
LINE
5
247
100
AcDbEntity
8
Leuchtdiodenposition (zentriert)
6
ByLayer
62
256
370
-1
100
AcDbLine
10
365.5
20
299.5
11
365.5
21
298.5
0
LINE
5
248
100
AcDbEntity
8
Leuchtdiodenposition (zentriert)
6
ByLayer
62
256
370
-1
100
AcDbLine
10
365.5
20
298.5
11
364.5
21
298.5
0
LINE
5
249
100
AcDbEntity
8
Leuchtdiodenposition (zentriert)
6
ByLayer
62
256
370
-1
100
AcDbLine
10
364.5
20
298.5
11
364.5
21
299.5
0
LINE
5
24A
100
AcDbEntity
8
Leuchtdiodenposition (zentriert)
6
ByLayer
62
256
370
-1
100
AcDbLine
10
34.5
20
332.5
11
35.5
21
332.5
0
LINE
5
24B
100
AcDbEntity
8
Leuchtdiodenposition (zentriert)
6
ByLayer
62
256
370
-1
100
AcDbLine
10
35.5
20
332.5
11
35.5
21
331.5
0
LINE
5
24C
100
AcDbEntity
8
Leuchtdiodenposition (zentriert)
6
ByLayer
62
256
370
-1
100
AcDbLine
10
35.5
20
331.5
11
34.5
21
331.5
0
LINE
5
24D
100
AcDbEntity
8
Leuchtdiodenposition (zentriert)
6
ByLayer
62
256
370
-1
100
AcDbLine
10
34.5
20
331.5
11
34.5
21
332.5
0
LINE
5
24E
100
AcDbEntity
8
Leuchtdiodenposition (zentriert)
6
ByLayer
62
256
370
-1
100
AcDbLine
10
67.5
20
332.5
11
68.5
21
332.5
0
LINE
5
24F
100
AcDbEntity
8
Leuchtdiodenposition (zentriert)
6
ByLayer
62
256
370
-1
100
AcDbLine
10
68.5
20
332.5
11
68.5
21
331.5
0
LINE
5
250
100
AcDbEntity
8
Leuchtdiodenposition (zentriert)
6
ByLayer
62
256
370
-1
100
AcDbLine
10
68.5
20
331.5
11
67.5
21
331.5
0
LINE
5
251
100
AcDbEntity
8
Leuchtdiodenposition (zentriert)
6
ByLayer
62
256
370
-1
100
AcDbLine
10
67.5
20
331.5
11
67.5
21
332.5
0
LINE
5
252
100
AcDbEntity
8
Leuchtdiodenposition (zentriert)
6
ByLayer
62
256
370
-1
100
AcDbLine
10
100.5
20
332.5
11
101.5
21
332.5
0
LINE
5
253
100
AcDbEntity
8
Leuchtdiodenposition (zentriert)
6
ByLayer
62
256
370
-1
100
AcDbLine
10
101.5
20
332.5
11
101.5
21
331.5
0
LINE
5
254
100
AcDbEntity
8
Leuchtdiodenposition (zentriert)
6
ByLayer
62
256
370
-1
100
AcDbLine
10
101.5
20
331.5
11
100.5
21
331.5
0
LINE
5
255
100
AcDbEntity
8
Leuchtdiodenposition (zentriert)
6
ByLayer
62
256
370
-1
100
AcDbLine
10
100.5
20
331.5
11
100.5
21
332.5
0
LINE
5
256
100
AcDbEntity
8
Leuchtdiodenposition (zentriert)
6
ByLayer
62
256
370
-1
100
AcDbLine
10
133.5
20
332.5
11
134.5
21
332.5
0
LINE
5
257
100
AcDbEntity
8
Leuchtdiodenposition (zentriert)
6
ByLayer
62
256
370
-1
100
AcDbLine
10
134.5
20
332.5
11
134.5
21
331.5
0
LINE
5
258
100
AcDbEntity
8
Leuchtdiodenposition (zentriert)
6
ByLayer
62
256
370
-1
100
AcDbLine
10
134.5
20
331.5
11
133.5
21
331.5
0
LINE
5
259
100
AcDbEntity
8
Leuchtdiodenposition (zentriert)
6
ByLayer
62
256
370
-1
100
AcDbLine
10
133.5
20
331.5
11
133.5
21
332.5
0
LINE
5
25A
100
AcDbEntity
8
Leuchtdiodenposition (zentriert)
6
ByLayer
62
256
370
-1
100
AcDbLine
10
166.5
20
332.5
11
167.5
21
332.5
0
LINE
5
25B
100
AcDbEntity
8
Leuchtdiodenposition (zentriert)
6
ByLayer
62
256
370
-1
100
AcDbLine
10
167.5
20
332.5
11
167.5
21
331.5
0
LINE
5
25C
100
AcDbEntity
8
Leuchtdiodenposition (zentriert)
6
ByLayer
62
256
370
-1
100
AcDbLine
10
167.5
20
331.5
11
166.5
21
331.5
0
LINE
5
25D
100
AcDbEntity
8
Leuchtdiodenposition (zentriert)
6
ByLayer
62
256
370
-1
100
AcDbLine
10
166.5
20
331.5
11
166.5
21
332.5
0
LINE
5
25E
100
AcDbEntity
8
Leuchtdiodenposition (zentriert)
6
ByLayer
62
256
370
-1
100
AcDbLine
10
199.5
20
332.5
11
200.5
21
332.5
0
LINE
5
25F
100
AcDbEntity
8
Leuchtdiodenposition (zentriert)
6
ByLayer
62
256
370
-1
100
AcDbLine
10
200.5
20
332.5
11
200.5
21
331.5
0
LINE
5
260
100
AcDbEntity
8
Leuchtdiodenposition (zentriert)
6
ByLayer
62
256
370
-1
100
AcDbLine
10
200.5
20
331.5
11
199.5
21
331.5
0
LINE
5
261
100
AcDbEntity
8
Leuchtdiodenposition (zentriert)
6
ByLayer
62
256
370
-1
100
AcDbLine
10
199.5
20
331.5
11
199.5
21
332.5
0
LINE
5
262
100
AcDbEntity
8
Leuchtdiodenposition (zentriert)
6
ByLayer
62
256
370
-1
100
AcDbLine
10
232.5
20
332.5
11
233.5
21
332.5
0
LINE
5
263
100
AcDbEntity
8
Leuchtdiodenposition (zentriert)
6
ByLayer
62
256
370
-1
100
AcDbLine
10
233.5
20
332.5
11
233.5
21
331.5
0
LINE
5
264
100
AcDbEntity
8
Leuchtdiodenposition (zentriert)
6
ByLayer
62
256
370
-1
100
AcDbLine
10
233.5
20
331.5
11
232.5
21
331.5
0
LINE
5
265
100
AcDbEntity
8
Leuchtdiodenposition (zentriert)
6
ByLayer
62
256
370
-1
100
AcDbLine
10
232.5
20
331.5
11
232.5
21
332.5
0
LINE
5
266
100
AcDbEntity
8
Leuchtdiodenposition (zentriert)
6
ByLayer
62
256
370
-1
100
AcDbLine
10
265.5
20
332.5
11
266.5
21
332.5
0
LINE
5
267
100
AcDbEntity
8
Leuchtdiodenposition (zentriert)
6
ByLayer
62
256
370
-1
100
AcDbLine
10
266.5
20
332.5
11
266.5
21
331.5
0
LINE
5
268
100
AcDbEntity
8
Leuchtdiodenposition (zentriert)
6
ByLayer
62
256
370
-1
100
AcDbLine
10
266.5
20
331.5
11
265.5
21
331.5
0
LINE
5
269
100
AcDbEntity
8
Leuchtdiodenposition (zentriert)
6
ByLayer
62
256
370
-1
100
AcDbLine
10
265.5
20
331.5
11
265.5
21
332.5
0
LINE
5
26A
100
AcDbEntity
8
Leuchtdiodenposition (zentriert)
6
ByLayer
62
256
370
-1
100
AcDbLine
10
298.5
20
332.5
11
299.5
21
332.5
0
LINE
5
26B
100
AcDbEntity
8
Leuchtdiodenposition (zentriert)
6
ByLayer
62
256
370
-1
100
AcDbLine
10
299.5
20
332.5
11
299.5
21
331.5
0
LINE
5
26C
100
AcDbEntity
8
Leuchtdiodenposition (zentriert)
6
ByLayer
62
256
370
-1
100
AcDbLine
10
299.5
20
331.5
11
298.5
21
331.5
0
LINE
5
26D
100
AcDbEntity
8
Leuchtdiodenposition (zentriert)
6
ByLayer
62
256
370
-1
100
AcDbLine
10
298.5
20
331.5
11
298.5
21
332.5
0
LINE
5
26E
100
AcDbEntity
8
Leuchtdiodenposition (zentriert)
6
ByLayer
62
256
370
-1
100
AcDbLine
10
331.5
20
332.5
11
332.5
21
332.5
0
LINE
5
26F
100
AcDbEntity
8
Leuchtdiodenposition (zentriert)
6
ByLayer
62
256
370
-1
100
AcDbLine
10
332.5
20
332.5
11
332.5
21
331.5
0
LINE
5
270
100
AcDbEntity
8
Leuchtdiodenposition (zentriert)
6
ByLayer
62
256
370
-1
100
AcDbLine
10
332.5
20
331.5
11
331.5
21
331.5
0
LINE
5
271
100
AcDbEntity
8
Leuchtdiodenposition (zentriert)
6
ByLayer
62
256
370
-1
100
AcDbLine
10
331.5
20
331.5
11
331.5
21
332.5
0
LINE
5
272
100
AcDbEntity
8
Leuchtdiodenposition (zentriert)
6
ByLayer
62
256
370
-1
100
AcDbLine
10
364.5
20
332.5
11
365.5
21
332.5
0
LINE
5
273
100
AcDbEntity
8
Leuchtdiodenposition (zentriert)
6
ByLayer
62
256
370
-1
100
AcDbLine
10
365.5
20
332.5
11
365.5
21
331.5
0
LINE
5
274
100
AcDbEntity
8
Leuchtdiodenposition (zentriert)
6
ByLayer
62
256
370
-1
100
AcDbLine
10
365.5
20
331.5
11
364.5
21
331.5
0
LINE
5
275
100
AcDbEntity
8
Leuchtdiodenposition (zentriert)
6
ByLayer
62
256
370
-1
100
AcDbLine
10
364.5
20
331.5
11
364.5
21
332.5
0
LINE
5
276
100
AcDbEntity
8
Leuchtdiodenposition (zentriert)
6
ByLayer
62
256
370
-1
100
AcDbLine
10
34.5
20
365.5
11
35.5
21
365.5
0
LINE
5
277
100
AcDbEntity
8
Leuchtdiodenposition (zentriert)
6
ByLayer
62
256
370
-1
100
AcDbLine
10
35.5
20
365.5
11
35.5
21
364.5
0
LINE
5
278
100
AcDbEntity
8
Leuchtdiodenposition (zentriert)
6
ByLayer
62
256
370
-1
100
AcDbLine
10
35.5
20
364.5
11
34.5
21
364.5
0
LINE
5
279
100
AcDbEntity
8
Leuchtdiodenposition (zentriert)
6
ByLayer
62
256
370
-1
100
AcDbLine
10
34.5
20
364.5
11
34.5
21
365.5
0
LINE
5
27A
100
AcDbEntity
8
Leuchtdiodenposition (zentriert)
6
ByLayer
62
256
370
-1
100
AcDbLine
10
67.5
20
365.5
11
68.5
21
365.5
0
LINE
5
27B
100
AcDbEntity
8
Leuchtdiodenposition (zentriert)
6
ByLayer
62
256
370
-1
100
AcDbLine
10
68.5
20
365.5
11
68.5
21
364.5
0
LINE
5
27C
100
AcDbEntity
8
Leuchtdiodenposition (zentriert)
6
ByLayer
62
256
370
-1
100
AcDbLine
10
68.5
20
364.5
11
67.5
21
364.5
0
LINE
5
27D
100
AcDbEntity
8
Leuchtdiodenposition (zentriert)
6
ByLayer
62
256
370
-1
100
AcDbLine
10
67.5
20
364.5
11
67.5
21
365.5
0
LINE
5
27E
100
AcDbEntity
8
Leuchtdiodenposition (zentriert)
6
ByLayer
62
256
370
-1
100
AcDbLine
10
100.5
20
365.5
11
101.5
21
365.5
0
LINE
5
27F
100
AcDbEntity
8
Leuchtdiodenposition (zentriert)
6
ByLayer
62
256
370
-1
100
AcDbLine
10
101.5
20
365.5
11
101.5
21
364.5
0
LINE
5
280
100
AcDbEntity
8
Leuchtdiodenposition (zentriert)
6
ByLayer
62
256
370
-1
100
AcDbLine
10
101.5
20
364.5
11
100.5
21
364.5
0
LINE
5
281
100
AcDbEntity
8
Leuchtdiodenposition (zentriert)
6
ByLayer
62
256
370
-1
100
AcDbLine
10
100.5
20
364.5
11
100.5
21
365.5
0
LINE
5
282
100
AcDbEntity
8
Leuchtdiodenposition (zentriert)
6
ByLayer
62
256
370
-1
100
AcDbLine
10
133.5
20
365.5
11
134.5
21
365.5
0
LINE
5
283
100
AcDbEntity
8
Leuchtdiodenposition (zentriert)
6
ByLayer
62
256
370
-1
100
AcDbLine
10
134.5
20
365.5
11
134.5
21
364.5
0
LINE
5
284
100
AcDbEntity
8
Leuchtdiodenposition (zentriert)
6
ByLayer
62
256
370
-1
100
AcDbLine
10
134.5
20
364.5
11
133.5
21
364.5
0
LINE
5
285
100
AcDbEntity
8
Leuchtdiodenposition (zentriert)
6
ByLayer
62
256
370
-1
100
AcDbLine
10
133.5
20
364.5
11
133.5
21
365.5
0
LINE
5
286
100
AcDbEntity
8
Leuchtdiodenposition (zentriert)
6
ByLayer
62
256
370
-1
100
AcDbLine
10
166.5
20
365.5
11
167.5
21
365.5
0
LINE
5
287
100
AcDbEntity
8
Leuchtdiodenposition (zentriert)
6
ByLayer
62
256
370
-1
100
AcDbLine
10
167.5
20
365.5
11
167.5
21
364.5
0
LINE
5
288
100
AcDbEntity
8
Leuchtdiodenposition (zentriert)
6
ByLayer
62
256
370
-1
100
AcDbLine
10
167.5
20
364.5
11
166.5
21
364.5
0
LINE
5
289
100
AcDbEntity
8
Leuchtdiodenposition (zentriert)
6
ByLayer
62
256
370
-1
100
AcDbLine
10
166.5
20
364.5
11
166.5
21
365.5
0
LINE
5
28A
100
AcDbEntity
8
Leuchtdiodenposition (zentriert)
6
ByLayer
62
256
370
-1
100
AcDbLine
10
199.5
20
365.5
11
200.5
21
365.5
0
LINE
5
28B
100
AcDbEntity
8
Leuchtdiodenposition (zentriert)
6
ByLayer
62
256
370
-1
100
AcDbLine
10
200.5
20
365.5
11
200.5
21
364.5
0
LINE
5
28C
100
AcDbEntity
8
Leuchtdiodenposition (zentriert)
6
ByLayer
62
256
370
-1
100
AcDbLine
10
200.5
20
364.5
11
199.5
21
364.5
0
LINE
5
28D
100
AcDbEntity
8
Leuchtdiodenposition (zentriert)
6
ByLayer
62
256
370
-1
100
AcDbLine
10
199.5
20
364.5
11
199.5
21
365.5
0
LINE
5
28E
100
AcDbEntity
8
Leuchtdiodenposition (zentriert)
6
ByLayer
62
256
370
-1
100
AcDbLine
10
232.5
20
365.5
11
233.5
21
365.5
0
LINE
5
28F
100
AcDbEntity
8
Leuchtdiodenposition (zentriert)
6
ByLayer
62
256
370
-1
100
AcDbLine
10
233.5
20
365.5
11
233.5
21
364.5
0
LINE
5
290
100
AcDbEntity
8
Leuchtdiodenposition (zentriert)
6
ByLayer
62
256
370
-1
100
AcDbLine
10
233.5
20
364.5
11
232.5
21
364.5
0
LINE
5
291
100
AcDbEntity
8
Leuchtdiodenposition (zentriert)
6
ByLayer
62
256
370
-1
100
AcDbLine
10
232.5
20
364.5
11
232.5
21
365.5
0
LINE
5
292
100
AcDbEntity
8
Leuchtdiodenposition (zentriert)
6
ByLayer
62
256
370
-1
100
AcDbLine
10
265.5
20
365.5
11
266.5
21
365.5
0
LINE
5
293
100
AcDbEntity
8
Leuchtdiodenposition (zentriert)
6
ByLayer
62
256
370
-1
100
AcDbLine
10
266.5
20
365.5
11
266.5
21
364.5
0
LINE
5
294
100
AcDbEntity
8
Leuchtdiodenposition (zentriert)
6
ByLayer
62
256
370
-1
100
AcDbLine
10
266.5
20
364.5
11
265.5
21
364.5
0
LINE
5
295
100
AcDbEntity
8
Leuchtdiodenposition (zentriert)
6
ByLayer
62
256
370
-1
100
AcDbLine
10
265.5
20
364.5
11
265.5
21
365.5
0
LINE
5
296
100
AcDbEntity
8
Leuchtdiodenposition (zentriert)
6
ByLayer
62
256
370
-1
100
AcDbLine
10
298.5
20
365.5
11
299.5
21
365.5
0
LINE
5
297
100
AcDbEntity
8
Leuchtdiodenposition (zentriert)
6
ByLayer
62
256
370
-1
100
AcDbLine
10
299.5
20
365.5
11
299.5
21
364.5
0
LINE
5
298
100
AcDbEntity
8
Leuchtdiodenposition (zentriert)
6
ByLayer
62
256
370
-1
100
AcDbLine
10
299.5
20
364.5
11
298.5
21
364.5
0
LINE
5
299
100
AcDbEntity
8
Leuchtdiodenposition (zentriert)
6
ByLayer
62
256
370
-1
100
AcDbLine
10
298.5
20
364.5
11
298.5
21
365.5
0
LINE
5
29A
100
AcDbEntity
8
Leuchtdiodenposition (zentriert)
6
ByLayer
62
256
370
-1
100
AcDbLine
10
331.5
20
365.5
11
332.5
21
365.5
0
LINE
5
29B
100
AcDbEntity
8
Leuchtdiodenposition (zentriert)
6
ByLayer
62
256
370
-1
100
AcDbLine
10
332.5
20
365.5
11
332.5
21
364.5
0
LINE
5
29C
100
AcDbEntity
8
Leuchtdiodenposition (zentriert)
6
ByLayer
62
256
370
-1
100
AcDbLine
10
332.5
20
364.5
11
331.5
21
364.5
0
LINE
5
29D
100
AcDbEntity
8
Leuchtdiodenposition (zentriert)
6
ByLayer
62
256
370
-1
100
AcDbLine
10
331.5
20
364.5
11
331.5
21
365.5
0
LINE
5
29E
100
AcDbEntity
8
Leuchtdiodenposition (zentriert)
6
ByLayer
62
256
370
-1
100
AcDbLine
10
364.5
20
365.5
11
365.5
21
365.5
0
LINE
5
29F
100
AcDbEntity
8
Leuchtdiodenposition (zentriert)
6
ByLayer
62
256
370
-1
100
AcDbLine
10
365.5
20
365.5
11
365.5
21
364.5
0
LINE
5
2A0
100
AcDbEntity
8
Leuchtdiodenposition (zentriert)
6
ByLayer
62
256
370
-1
100
AcDbLine
10
365.5
20
364.5
11
364.5
21
364.5
0
LINE
5
2A1
100
AcDbEntity
8
Leuchtdiodenposition (zentriert)
6
ByLayer
62
256
370
-1
100
AcDbLine
10
364.5
20
364.5
11
364.5
21
365.5
0
LINE
5
2A2
100
AcDbEntity
8
Leuchtdiodenposition (zentriert)
6
ByLayer
62
256
370
-1
100
AcDbLine
10
150
20
35.5
11
151
21
35.5
0
LINE
5
2A3
100
AcDbEntity
8
Leuchtdiodenposition (zentriert)
6
ByLayer
62
256
370
-1
100
AcDbLine
10
151
20
35.5
11
151
21
34.5
0
LINE
5
2A4
100
AcDbEntity
8
Leuchtdiodenposition (zentriert)
6
ByLayer
62
256
370
-1
100
AcDbLine
10
151
20
34.5
11
150
21
34.5
0
LINE
5
2A5
100
AcDbEntity
8
Leuchtdiodenposition (zentriert)
6
ByLayer
62
256
370
-1
100
AcDbLine
10
150
20
34.5
11
150
21
35.5
0
LINE
5
2A6
100
AcDbEntity
8
Leuchtdiodenposition (zentriert)
6
ByLayer
62
256
370
-1
100
AcDbLine
10
183
20
35.5
11
184
21
35.5
0
LINE
5
2A7
100
AcDbEntity
8
Leuchtdiodenposition (zentriert)
6
ByLayer
62
256
370
-1
100
AcDbLine
10
184
20
35.5
11
184
21
34.5
0
LINE
5
2A8
100
AcDbEntity
8
Leuchtdiodenposition (zentriert)
6
ByLayer
62
256
370
-1
100
AcDbLine
10
184
20
34.5
11
183
21
34.5
0
LINE
5
2A9
100
AcDbEntity
8
Leuchtdiodenposition (zentriert)
6
ByLayer
62
256
370
-1
100
AcDbLine
10
183
20
34.5
11
183
21
35.5
0
LINE
5
2AA
100
AcDbEntity
8
Leuchtdiodenposition (zentriert)
6
ByLayer
62
256
370
-1
100
AcDbLine
10
216
20
35.5
11
217
21
35.5
0
LINE
5
2AB
100
AcDbEntity
8
Leuchtdiodenposition (zentriert)
6
ByLayer
62
256
370
-1
100
AcDbLine
10
217
20
35.5
11
217
21
34.5
0
LINE
5
2AC
100
AcDbEntity
8
Leuchtdiodenposition (zentriert)
6
ByLayer
62
256
370
-1
100
AcDbLine
10
217
20
34.5
11
216
21
34.5
0
LINE
5
2AD
100
AcDbEntity
8
Leuchtdiodenposition (zentriert)
6
ByLayer
62
256
370
-1
100
AcDbLine
10
216
20
34.5
11
216
21
35.5
0
LINE
5
2AE
100
AcDbEntity
8
Leuchtdiodenposition (zentriert)
6
ByLayer
62
256
370
-1
100
AcDbLine
10
249
20
35.5
11
250
21
35.5
0
LINE
5
2AF
100
AcDbEntity
8
Leuchtdiodenposition (zentriert)
6
ByLayer
62
256
370
-1
100
AcDbLine
10
250
20
35.5
11
250
21
34.5
0
LINE
5
2B0
100
AcDbEntity
8
Leuchtdiodenposition (zentriert)
6
ByLayer
62
256
370
-1
100
AcDbLine
10
250
20
34.5
11
249
21
34.5
0
LINE
5
2B1
100
AcDbEntity
8
Leuchtdiodenposition (zentriert)
6
ByLayer
62
256
370
-1
100
AcDbLine
10
249
20
34.5
11
249
21
35.5
0
LINE
5
2B2
100
AcDbEntity
8
Lichtgitter (Schaumstoff schwarz)
6
ByLayer
62
256
370
-1
100
AcDbLine
10
21
20
379
11
49
21
379
0
LINE
5
2B3
100
AcDbEntity
8
Lichtgitter (Schaumstoff schwarz)
6
ByLayer
62
256
370
-1
100
AcDbLine
10
49
20
379
11
49
21
351
0
LINE
5
2B4
100
AcDbEntity
8
Lichtgitter (Schaumstoff schwarz)
6
ByLayer
62
256
370
-1
100
AcDbLine
10
49
20
351
11
21
21
351
0
LINE
5
2B5
100
AcDbEntity
8
Lichtgitter (Schaumstoff schwarz)
6
ByLayer
62
256
370
-1
100
AcDbLine
10
21
20
351
11
21
21
379
0
LINE
5
2B6
100
AcDbEntity
8
Lichtgitter (Schaumstoff schwarz)
6
ByLayer
62
256
370
-1
100
AcDbLine
10
54
20
379
11
82
21
379
0
LINE
5
2B7
100
AcDbEntity
8
Lichtgitter (Schaumstoff schwarz)
6
ByLayer
62
256
370
-1
100
AcDbLine
10
82
20
379
11
82
21
351
0
LINE
5
2B8
100
AcDbEntity
8
Lichtgitter (Schaumstoff schwarz)
6
ByLayer
62
256
370
-1
100
AcDbLine
10
82
20
351
11
54
21
351
0
LINE
5
2B9
100
AcDbEntity
8
Lichtgitter (Schaumstoff schwarz)
6
ByLayer
62
256
370
-1
100
AcDbLine
10
54
20
351
11
54
21
379
0
LINE
5
2BA
100
AcDbEntity
8
Lichtgitter (Schaumstoff schwarz)
6
ByLayer
62
256
370
-1
100
AcDbLine
10
87
20
379
11
115
21
379
0
LINE
5
2BB
100
AcDbEntity
8
Lichtgitter (Schaumstoff schwarz)
6
ByLayer
62
256
370
-1
100
AcDbLine
10
115
20
379
11
115
21
351
0
LINE
5
2BC
100
AcDbEntity
8
Lichtgitter (Schaumstoff schwarz)
6
ByLayer
62
256
370
-1
100
AcDbLine
10
115
20
351
11
87
21
351
0
LINE
5
2BD
100
AcDbEntity
8
Lichtgitter (Schaumstoff schwarz)
6
ByLayer
62
256
370
-1
100
AcDbLine
10
87
20
351
11
87
21
379
0
LINE
5
2BE
100
AcDbEntity
8
Lichtgitter (Schaumstoff schwarz)
6
ByLayer
62
256
370
-1
100
AcDbLine
10
120
20
379
11
148
21
379
0
LINE
5
2BF
100
AcDbEntity
8
Lichtgitter (Schaumstoff schwarz)
6
ByLayer
62
256
370
-1
100
AcDbLine
10
148
20
379
11
148
21
351
0
LINE
5
2C0
100
AcDbEntity
8
Lichtgitter (Schaumstoff schwarz)
6
ByLayer
62
256
370
-1
100
AcDbLine
10
148
20
351
11
120
21
351
0
LINE
5
2C1
100
AcDbEntity
8
Lichtgitter (Schaumstoff schwarz)
6
ByLayer
62
256
370
-1
100
AcDbLine
10
120
20
351
11
120
21
379
0
LINE
5
2C2
100
AcDbEntity
8
Lichtgitter (Schaumstoff schwarz)
6
ByLayer
62
256
370
-1
100
AcDbLine
10
153
20
379
11
181
21
379
0
LINE
5
2C3
100
AcDbEntity
8
Lichtgitter (Schaumstoff schwarz)
6
ByLayer
62
256
370
-1
100
AcDbLine
10
181
20
379
11
181
21
351
0
LINE
5
2C4
100
AcDbEntity
8
Lichtgitter (Schaumstoff schwarz)
6
ByLayer
62
256
370
-1
100
AcDbLine
10
181
20
351
11
153
21
351
0
LINE
5
2C5
100
AcDbEntity
8
Lichtgitter (Schaumstoff schwarz)
6
ByLayer
62
256
370
-1
100
AcDbLine
10
153
20
351
11
153
21
379
0
LINE
5
2C6
100
AcDbEntity
8
Lichtgitter (Schaumstoff schwarz)
6
ByLayer
62
256
370
-1
100
AcDbLine
10
186
20
379
11
214
21
379
0
LINE
5
2C7
100
AcDbEntity
8
Lichtgitter (Schaumstoff schwarz)
6
ByLayer
62
256
370
-1
100
AcDbLine
10
214
20
379
11
214
21
351
0
LINE
5
2C8
100
AcDbEntity
8
Lichtgitter (Schaumstoff schwarz)
6
ByLayer
62
256
370
-1
100
AcDbLine
10
214
20
351
11
186
21
351
0
LINE
5
2C9
100
AcDbEntity
8
Lichtgitter (Schaumstoff schwarz)
6
ByLayer
62
256
370
-1
100
AcDbLine
10
186
20
351
11
186
21
379
0
LINE
5
2CA
100
AcDbEntity
8
Lichtgitter (Schaumstoff schwarz)
6
ByLayer
62
256
370
-1
100
AcDbLine
10
219
20
379
11
247
21
379
0
LINE
5
2CB
100
AcDbEntity
8
Lichtgitter (Schaumstoff schwarz)
6
ByLayer
62
256
370
-1
100
AcDbLine
10
247
20
379
11
247
21
351
0
LINE
5
2CC
100
AcDbEntity
8
Lichtgitter (Schaumstoff schwarz)
6
ByLayer
62
256
370
-1
100
AcDbLine
10
247
20
351
11
219
21
351
0
LINE
5
2CD
100
AcDbEntity
8
Lichtgitter (Schaumstoff schwarz)
6
ByLayer
62
256
370
-1
100
AcDbLine
10
219
20
351
11
219
21
379
0
LINE
5
2CE
100
AcDbEntity
8
Lichtgitter (Schaumstoff schwarz)
6
ByLayer
62
256
370
-1
100
AcDbLine
10
252
20
379
11
280
21
379
0
LINE
5
2CF
100
AcDbEntity
8
Lichtgitter (Schaumstoff schwarz)
6
ByLayer
62
256
370
-1
100
AcDbLine
10
280
20
379
11
280
21
351
0
LINE
5
2D0
100
AcDbEntity
8
Lichtgitter (Schaumstoff schwarz)
6
ByLayer
62
256
370
-1
100
AcDbLine
10
280
20
351
11
252
21
351
0
LINE
5
2D1
100
AcDbEntity
8
Lichtgitter (Schaumstoff schwarz)
6
ByLayer
62
256
370
-1
100
AcDbLine
10
252
20
351
11
252
21
379
0
LINE
5
2D2
100
AcDbEntity
8
Lichtgitter (Schaumstoff schwarz)
6
ByLayer
62
256
370
-1
100
AcDbLine
10
285
20
379
11
313
21
379
0
LINE
5
2D3
100
AcDbEntity
8
Lichtgitter (Schaumstoff schwarz)
6
ByLayer
62
256
370
-1
100
AcDbLine
10
313
20
379
11
313
21
351
0
LINE
5
2D4
100
AcDbEntity
8
Lichtgitter (Schaumstoff schwarz)
6
ByLayer
62
256
370
-1
100
AcDbLine
10
313
20
351
11
285
21
351
0
LINE
5
2D5
100
AcDbEntity
8
Lichtgitter (Schaumstoff schwarz)
6
ByLayer
62
256
370
-1
100
AcDbLine
10
285
20
351
11
285
21
379
0
LINE
5
2D6
100
AcDbEntity
8
Lichtgitter (Schaumstoff schwarz)
6
ByLayer
62
256
370
-1
100
AcDbLine
10
318
20
379
11
346
21
379
0
LINE
5
2D7
100
AcDbEntity
8
Lichtgitter (Schaumstoff schwarz)
6
ByLayer
62
256
370
-1
100
AcDbLine
10
346
20
379
11
346
21
351
0
LINE
5
2D8
100
AcDbEntity
8
Lichtgitter (Schaumstoff schwarz)
6
ByLayer
62
256
370
-1
100
AcDbLine
10
346
20
351
11
318
21
351
0
LINE
5
2D9
100
AcDbEntity
8
Lichtgitter (Schaumstoff schwarz)
6
ByLayer
62
256
370
-1
100
AcDbLine
10
318
20
351
11
318
21
379
0
LINE
5
2DA
100
AcDbEntity
8
Lichtgitter (Schaumstoff schwarz)
6
ByLayer
62
256
370
-1
100
AcDbLine
10
351
20
379
11
379
21
379
0
LINE
5
2DB
100
AcDbEntity
8
Lichtgitter (Schaumstoff schwarz)
6
ByLayer
62
256
370
-1
100
AcDbLine
10
379
20
379
11
379
21
351
0
LINE
5
2DC
100
AcDbEntity
8
Lichtgitter (Schaumstoff schwarz)
6
ByLayer
62
256
370
-1
100
AcDbLine
10
379
20
351
11
351
21
351
0
LINE
5
2DD
100
AcDbEntity
8
Lichtgitter (Schaumstoff schwarz)
6
ByLayer
62
256
370
-1
100
AcDbLine
10
351
20
351
11
351
21
379
0
LINE
5
2DE
100
AcDbEntity
8
Lichtgitter (Schaumstoff schwarz)
6
ByLayer
62
256
370
-1
100
AcDbLine
10
21
20
346
11
49
21
346
0
LINE
5
2DF
100
AcDbEntity
8
Lichtgitter (Schaumstoff schwarz)
6
ByLayer
62
256
370
-1
100
AcDbLine
10
49
20
346
11
49
21
318
0
LINE
5
2E0
100
AcDbEntity
8
Lichtgitter (Schaumstoff schwarz)
6
ByLayer
62
256
370
-1
100
AcDbLine
10
49
20
318
11
21
21
318
0
LINE
5
2E1
100
AcDbEntity
8
Lichtgitter (Schaumstoff schwarz)
6
ByLayer
62
256
370
-1
100
AcDbLine
10
21
20
318
11
21
21
346
0
LINE
5
2E2
100
AcDbEntity
8
Lichtgitter (Schaumstoff schwarz)
6
ByLayer
62
256
370
-1
100
AcDbLine
10
54
20
346
11
82
21
346
0
LINE
5
2E3
100
AcDbEntity
8
Lichtgitter (Schaumstoff schwarz)
6
ByLayer
62
256
370
-1
100
AcDbLine
10
82
20
346
11
82
21
318
0
LINE
5
2E4
100
AcDbEntity
8
Lichtgitter (Schaumstoff schwarz)
6
ByLayer
62
256
370
-1
100
AcDbLine
10
82
20
318
11
54
21
318
0
LINE
5
2E5
100
AcDbEntity
8
Lichtgitter (Schaumstoff schwarz)
6
ByLayer
62
256
370
-1
100
AcDbLine
10
54
20
318
11
54
21
346
0
LINE
5
2E6
100
AcDbEntity
8
Lichtgitter (Schaumstoff schwarz)
6
ByLayer
62
256
370
-1
100
AcDbLine
10
87
20
346
11
115
21
346
0
LINE
5
2E7
100
AcDbEntity
8
Lichtgitter (Schaumstoff schwarz)
6
ByLayer
62
256
370
-1
100
AcDbLine
10
115
20
346
11
115
21
318
0
LINE
5
2E8
100
AcDbEntity
8
Lichtgitter (Schaumstoff schwarz)
6
ByLayer
62
256
370
-1
100
AcDbLine
10
115
20
318
11
87
21
318
0
LINE
5
2E9
100
AcDbEntity
8
Lichtgitter (Schaumstoff schwarz)
6
ByLayer
62
256
370
-1
100
AcDbLine
10
87
20
318
11
87
21
346
0
LINE
5
2EA
100
AcDbEntity
8
Lichtgitter (Schaumstoff schwarz)
6
ByLayer
62
256
370
-1
100
AcDbLine
10
120
20
346
11
148
21
346
0
LINE
5
2EB
100
AcDbEntity
8
Lichtgitter (Schaumstoff schwarz)
6
ByLayer
62
256
370
-1
100
AcDbLine
10
148
20
346
11
148
21
318
0
LINE
5
2EC
100
AcDbEntity
8
Lichtgitter (Schaumstoff schwarz)
6
ByLayer
62
256
370
-1
100
AcDbLine
10
148
20
318
11
120
21
318
0
LINE
5
2ED
100
AcDbEntity
8
Lichtgitter (Schaumstoff schwarz)
6
ByLayer
62
256
370
-1
100
AcDbLine
10
120
20
318
11
120
21
346
0
LINE
5
2EE
100
AcDbEntity
8
Lichtgitter (Schaumstoff schwarz)
6
ByLayer
62
256
370
-1
100
AcDbLine
10
153
20
346
11
181
21
346
0
LINE
5
2EF
100
AcDbEntity
8
Lichtgitter (Schaumstoff schwarz)
6
ByLayer
62
256
370
-1
100
AcDbLine
10
181
20
346
11
181
21
318
0
LINE
5
2F0
100
AcDbEntity
8
Lichtgitter (Schaumstoff schwarz)
6
ByLayer
62
256
370
-1
100
AcDbLine
10
181
20
318
11
153
21
318
0
LINE
5
2F1
100
AcDbEntity
8
Lichtgitter (Schaumstoff schwarz)
6
ByLayer
62
256
370
-1
100
AcDbLine
10
153
20
318
11
153
21
346
0
LINE
5
2F2
100
AcDbEntity
8
Lichtgitter (Schaumstoff schwarz)
6
ByLayer
62
256
370
-1
100
AcDbLine
10
186
20
346
11
214
21
346
0
LINE
5
2F3
100
AcDbEntity
8
Lichtgitter (Schaumstoff schwarz)
6
ByLayer
62
256
370
-1
100
AcDbLine
10
214
20
346
11
214
21
318
0
LINE
5
2F4
100
AcDbEntity
8
Lichtgitter (Schaumstoff schwarz)
6
ByLayer
62
256
370
-1
100
AcDbLine
10
214
20
318
11
186
21
318
0
LINE
5
2F5
100
AcDbEntity
8
Lichtgitter (Schaumstoff schwarz)
6
ByLayer
62
256
370
-1
100
AcDbLine
10
186
20
318
11
186
21
346
0
LINE
5
2F6
100
AcDbEntity
8
Lichtgitter (Schaumstoff schwarz)
6
ByLayer
62
256
370
-1
100
AcDbLine
10
219
20
346
11
247
21
346
0
LINE
5
2F7
100
AcDbEntity
8
Lichtgitter (Schaumstoff schwarz)
6
ByLayer
62
256
370
-1
100
AcDbLine
10
247
20
346
11
247
21
318
0
LINE
5
2F8
100
AcDbEntity
8
Lichtgitter (Schaumstoff schwarz)
6
ByLayer
62
256
370
-1
100
AcDbLine
10
247
20
318
11
219
21
318
0
LINE
5
2F9
100
AcDbEntity
8
Lichtgitter (Schaumstoff schwarz)
6
ByLayer
62
256
370
-1
100
AcDbLine
10
219
20
318
11
219
21
346
0
LINE
5
2FA
100
AcDbEntity
8
Lichtgitter (Schaumstoff schwarz)
6
ByLayer
62
256
370
-1
100
AcDbLine
10
252
20
346
11
280
21
346
0
LINE
5
2FB
100
AcDbEntity
8
Lichtgitter (Schaumstoff schwarz)
6
ByLayer
62
256
370
-1
100
AcDbLine
10
280
20
346
11
280
21
318
0
LINE
5
2FC
100
AcDbEntity
8
Lichtgitter (Schaumstoff schwarz)
6
ByLayer
62
256
370
-1
100
AcDbLine
10
280
20
318
11
252
21
318
0
LINE
5
2FD
100
AcDbEntity
8
Lichtgitter (Schaumstoff schwarz)
6
ByLayer
62
256
370
-1
100
AcDbLine
10
252
20
318
11
252
21
346
0
LINE
5
2FE
100
AcDbEntity
8
Lichtgitter (Schaumstoff schwarz)
6
ByLayer
62
256
370
-1
100
AcDbLine
10
285
20
346
11
313
21
346
0
LINE
5
2FF
100
AcDbEntity
8
Lichtgitter (Schaumstoff schwarz)
6
ByLayer
62
256
370
-1
100
AcDbLine
10
313
20
346
11
313
21
318
0
LINE
5
300
100
AcDbEntity
8
Lichtgitter (Schaumstoff schwarz)
6
ByLayer
62
256
370
-1
100
AcDbLine
10
313
20
318
11
285
21
318
0
LINE
5
301
100
AcDbEntity
8
Lichtgitter (Schaumstoff schwarz)
6
ByLayer
62
256
370
-1
100
AcDbLine
10
285
20
318
11
285
21
346
0
LINE
5
302
100
AcDbEntity
8
Lichtgitter (Schaumstoff schwarz)
6
ByLayer
62
256
370
-1
100
AcDbLine
10
318
20
346
11
346
21
346
0
LINE
5
303
100
AcDbEntity
8
Lichtgitter (Schaumstoff schwarz)
6
ByLayer
62
256
370
-1
100
AcDbLine
10
346
20
346
11
346
21
318
0
LINE
5
304
100
AcDbEntity
8
Lichtgitter (Schaumstoff schwarz)
6
ByLayer
62
256
370
-1
100
AcDbLine
10
346
20
318
11
318
21
318
0
LINE
5
305
100
AcDbEntity
8
Lichtgitter (Schaumstoff schwarz)
6
ByLayer
62
256
370
-1
100
AcDbLine
10
318
20
318
11
318
21
346
0
LINE
5
306
100
AcDbEntity
8
Lichtgitter (Schaumstoff schwarz)
6
ByLayer
62
256
370
-1
100
AcDbLine
10
351
20
346
11
379
21
346
0
LINE
5
307
100
AcDbEntity
8
Lichtgitter (Schaumstoff schwarz)
6
ByLayer
62
256
370
-1
100
AcDbLine
10
379
20
346
11
379
21
318
0
LINE
5
308
100
AcDbEntity
8
Lichtgitter (Schaumstoff schwarz)
6
ByLayer
62
256
370
-1
100
AcDbLine
10
379
20
318
11
351
21
318
0
LINE
5
309
100
AcDbEntity
8
Lichtgitter (Schaumstoff schwarz)
6
ByLayer
62
256
370
-1
100
AcDbLine
10
351
20
318
11
351
21
346
0
LINE
5
30A
100
AcDbEntity
8
Lichtgitter (Schaumstoff schwarz)
6
ByLayer
62
256
370
-1
100
AcDbLine
10
21
20
313
11
49
21
313
0
LINE
5
30B
100
AcDbEntity
8
Lichtgitter (Schaumstoff schwarz)
6
ByLayer
62
256
370
-1
100
AcDbLine
10
49
20
313
11
49
21
285
0
LINE
5
30C
100
AcDbEntity
8
Lichtgitter (Schaumstoff schwarz)
6
ByLayer
62
256
370
-1
100
AcDbLine
10
49
20
285
11
21
21
285
0
LINE
5
30D
100
AcDbEntity
8
Lichtgitter (Schaumstoff schwarz)
6
ByLayer
62
256
370
-1
100
AcDbLine
10
21
20
285
11
21
21
313
0
LINE
5
30E
100
AcDbEntity
8
Lichtgitter (Schaumstoff schwarz)
6
ByLayer
62
256
370
-1
100
AcDbLine
10
54
20
313
11
82
21
313
0
LINE
5
30F
100
AcDbEntity
8
Lichtgitter (Schaumstoff schwarz)
6
ByLayer
62
256
370
-1
100
AcDbLine
10
82
20
313
11
82
21
285
0
LINE
5
310
100
AcDbEntity
8
Lichtgitter (Schaumstoff schwarz)
6
ByLayer
62
256
370
-1
100
AcDbLine
10
82
20
285
11
54
21
285
0
LINE
5
311
100
AcDbEntity
8
Lichtgitter (Schaumstoff schwarz)
6
ByLayer
62
256
370
-1
100
AcDbLine
10
54
20
285
11
54
21
313
0
LINE
5
312
100
AcDbEntity
8
Lichtgitter (Schaumstoff schwarz)
6
ByLayer
62
256
370
-1
100
AcDbLine
10
87
20
313
11
115
21
313
0
LINE
5
313
100
AcDbEntity
8
Lichtgitter (Schaumstoff schwarz)
6
ByLayer
62
256
370
-1
100
AcDbLine
10
115
20
313
11
115
21
285
0
LINE
5
314
100
AcDbEntity
8
Lichtgitter (Schaumstoff schwarz)
6
ByLayer
62
256
370
-1
100
AcDbLine
10
115
20
285
11
87
21
285
0
LINE
5
315
100
AcDbEntity
8
Lichtgitter (Schaumstoff schwarz)
6
ByLayer
62
256
370
-1
100
AcDbLine
10
87
20
285
11
87
21
313
0
LINE
5
316
100
AcDbEntity
8
Lichtgitter (Schaumstoff schwarz)
6
ByLayer
62
256
370
-1
100
AcDbLine
10
120
20
313
11
148
21
313
0
LINE
5
317
100
AcDbEntity
8
Lichtgitter (Schaumstoff schwarz)
6
ByLayer
62
256
370
-1
100
AcDbLine
10
148
20
313
11
148
21
285
0
LINE
5
318
100
AcDbEntity
8
Lichtgitter (Schaumstoff schwarz)
6
ByLayer
62
256
370
-1
100
AcDbLine
10
148
20
285
11
120
21
285
0
LINE
5
319
100
AcDbEntity
8
Lichtgitter (Schaumstoff schwarz)
6
ByLayer
62
256
370
-1
100
AcDbLine
10
120
20
285
11
120
21
313
0
LINE
5
31A
100
AcDbEntity
8
Lichtgitter (Schaumstoff schwarz)
6
ByLayer
62
256
370
-1
100
AcDbLine
10
153
20
313
11
181
21
313
0
LINE
5
31B
100
AcDbEntity
8
Lichtgitter (Schaumstoff schwarz)
6
ByLayer
62
256
370
-1
100
AcDbLine
10
181
20
313
11
181
21
285
0
LINE
5
31C
100
AcDbEntity
8
Lichtgitter (Schaumstoff schwarz)
6
ByLayer
62
256
370
-1
100
AcDbLine
10
181
20
285
11
153
21
285
0
LINE
5
31D
100
AcDbEntity
8
Lichtgitter (Schaumstoff schwarz)
6
ByLayer
62
256
370
-1
100
AcDbLine
10
153
20
285
11
153
21
313
0
LINE
5
31E
100
AcDbEntity
8
Lichtgitter (Schaumstoff schwarz)
6
ByLayer
62
256
370
-1
100
AcDbLine
10
186
20
313
11
214
21
313
0
LINE
5
31F
100
AcDbEntity
8
Lichtgitter (Schaumstoff schwarz)
6
ByLayer
62
256
370
-1
100
AcDbLine
10
214
20
313
11
214
21
285
0
LINE
5
320
100
AcDbEntity
8
Lichtgitter (Schaumstoff schwarz)
6
ByLayer
62
256
370
-1
100
AcDbLine
10
214
20
285
11
186
21
285
0
LINE
5
321
100
AcDbEntity
8
Lichtgitter (Schaumstoff schwarz)
6
ByLayer
62
256
370
-1
100
AcDbLine
10
186
20
285
11
186
21
313
0
LINE
5
322
100
AcDbEntity
8
Lichtgitter (Schaumstoff schwarz)
6
ByLayer
62
256
370
-1
100
AcDbLine
10
219
20
313
11
247
21
313
0
LINE
5
323
100
AcDbEntity
8
Lichtgitter (Schaumstoff schwarz)
6
ByLayer
62
256
370
-1
100
AcDbLine
10
247
20
313
11
247
21
285
0
LINE
5
324
100
AcDbEntity
8
Lichtgitter (Schaumstoff schwarz)
6
ByLayer
62
256
370
-1
100
AcDbLine
10
247
20
285
11
219
21
285
0
LINE
5
325
100
AcDbEntity
8
Lichtgitter (Schaumstoff schwarz)
6
ByLayer
62
256
370
-1
100
AcDbLine
10
219
20
285
11
219
21
313
0
LINE
5
326
100
AcDbEntity
8
Lichtgitter (Schaumstoff schwarz)
6
ByLayer
62
256
370
-1
100
AcDbLine
10
252
20
313
11
280
21
313
0
LINE
5
327
100
AcDbEntity
8
Lichtgitter (Schaumstoff schwarz)
6
ByLayer
62
256
370
-1
100
AcDbLine
10
280
20
313
11
280
21
285
0
LINE
5
328
100
AcDbEntity
8
Lichtgitter (Schaumstoff schwarz)
6
ByLayer
62
256
370
-1
100
AcDbLine
10
280
20
285
11
252
21
285
0
LINE
5
329
100
AcDbEntity
8
Lichtgitter (Schaumstoff schwarz)
6
ByLayer
62
256
370
-1
100
AcDbLine
10
252
20
285
11
252
21
313
0
LINE
5
32A
100
AcDbEntity
8
Lichtgitter (Schaumstoff schwarz)
6
ByLayer
62
256
370
-1
100
AcDbLine
10
285
20
313
11
313
21
313
0
LINE
5
32B
100
AcDbEntity
8
Lichtgitter (Schaumstoff schwarz)
6
ByLayer
62
256
370
-1
100
AcDbLine
10
313
20
313
11
313
21
285
0
LINE
5
32C
100
AcDbEntity
8
Lichtgitter (Schaumstoff schwarz)
6
ByLayer
62
256
370
-1
100
AcDbLine
10
313
20
285
11
285
21
285
0
LINE
5
32D
100
AcDbEntity
8
Lichtgitter (Schaumstoff schwarz)
6
ByLayer
62
256
370
-1
100
AcDbLine
10
285
20
285
11
285
21
313
0
LINE
5
32E
100
AcDbEntity
8
Lichtgitter (Schaumstoff schwarz)
6
ByLayer
62
256
370
-1
100
AcDbLine
10
318
20
313
11
346
21
313
0
LINE
5
32F
100
AcDbEntity
8
Lichtgitter (Schaumstoff schwarz)
6
ByLayer
62
256
370
-1
100
AcDbLine
10
346
20
313
11
346
21
285
0
LINE
5
330
100
AcDbEntity
8
Lichtgitter (Schaumstoff schwarz)
6
ByLayer
62
256
370
-1
100
AcDbLine
10
346
20
285
11
318
21
285
0
LINE
5
331
100
AcDbEntity
8
Lichtgitter (Schaumstoff schwarz)
6
ByLayer
62
256
370
-1
100
AcDbLine
10
318
20
285
11
318
21
313
0
LINE
5
332
100
AcDbEntity
8
Lichtgitter (Schaumstoff schwarz)
6
ByLayer
62
256
370
-1
100
AcDbLine
10
351
20
313
11
379
21
313
0
LINE
5
333
100
AcDbEntity
8
Lichtgitter (Schaumstoff schwarz)
6
ByLayer
62
256
370
-1
100
AcDbLine
10
379
20
313
11
379
21
285
0
LINE
5
334
100
AcDbEntity
8
Lichtgitter (Schaumstoff schwarz)
6
ByLayer
62
256
370
-1
100
AcDbLine
10
379
20
285
11
351
21
285
0
LINE
5
335
100
AcDbEntity
8
Lichtgitter (Schaumstoff schwarz)
6
ByLayer
62
256
370
-1
100
AcDbLine
10
351
20
285
11
351
21
313
0
LINE
5
336
100
AcDbEntity
8
Lichtgitter (Schaumstoff schwarz)
6
ByLayer
62
256
370
-1
100
AcDbLine
10
21
20
280
11
49
21
280
0
LINE
5
337
100
AcDbEntity
8
Lichtgitter (Schaumstoff schwarz)
6
ByLayer
62
256
370
-1
100
AcDbLine
10
49
20
280
11
49
21
252
0
LINE
5
338
100
AcDbEntity
8
Lichtgitter (Schaumstoff schwarz)
6
ByLayer
62
256
370
-1
100
AcDbLine
10
49
20
252
11
21
21
252
0
LINE
5
339
100
AcDbEntity
8
Lichtgitter (Schaumstoff schwarz)
6
ByLayer
62
256
370
-1
100
AcDbLine
10
21
20
252
11
21
21
280
0
LINE
5
33A
100
AcDbEntity
8
Lichtgitter (Schaumstoff schwarz)
6
ByLayer
62
256
370
-1
100
AcDbLine
10
54
20
280
11
82
21
280
0
LINE
5
33B
100
AcDbEntity
8
Lichtgitter (Schaumstoff schwarz)
6
ByLayer
62
256
370
-1
100
AcDbLine
10
82
20
280
11
82
21
252
0
LINE
5
33C
100
AcDbEntity
8
Lichtgitter (Schaumstoff schwarz)
6
ByLayer
62
256
370
-1
100
AcDbLine
10
82
20
252
11
54
21
252
0
LINE
5
33D
100
AcDbEntity
8
Lichtgitter (Schaumstoff schwarz)
6
ByLayer
62
256
370
-1
100
AcDbLine
10
54
20
252
11
54
21
280
0
LINE
5
33E
100
AcDbEntity
8
Lichtgitter (Schaumstoff schwarz)
6
ByLayer
62
256
370
-1
100
AcDbLine
10
87
20
280
11
115
21
280
0
LINE
5
33F
100
AcDbEntity
8
Lichtgitter (Schaumstoff schwarz)
6
ByLayer
62
256
370
-1
100
AcDbLine
10
115
20
280
11
115
21
252
0
LINE
5
340
100
AcDbEntity
8
Lichtgitter (Schaumstoff schwarz)
6
ByLayer
62
256
370
-1
100
AcDbLine
10
115
20
252
11
87
21
252
0
LINE
5
341
100
AcDbEntity
8
Lichtgitter (Schaumstoff schwarz)
6
ByLayer
62
256
370
-1
100
AcDbLine
10
87
20
252
11
87
21
280
0
LINE
5
342
100
AcDbEntity
8
Lichtgitter (Schaumstoff schwarz)
6
ByLayer
62
256
370
-1
100
AcDbLine
10
120
20
280
11
148
21
280
0
LINE
5
343
100
AcDbEntity
8
Lichtgitter (Schaumstoff schwarz)
6
ByLayer
62
256
370
-1
100
AcDbLine
10
148
20
280
11
148
21
252
0
LINE
5
344
100
AcDbEntity
8
Lichtgitter (Schaumstoff schwarz)
6
ByLayer
62
256
370
-1
100
AcDbLine
10
148
20
252
11
120
21
252
0
LINE
5
345
100
AcDbEntity
8
Lichtgitter (Schaumstoff schwarz)
6
ByLayer
62
256
370
-1
100
AcDbLine
10
120
20
252
11
120
21
280
0
LINE
5
346
100
AcDbEntity
8
Lichtgitter (Schaumstoff schwarz)
6
ByLayer
62
256
370
-1
100
AcDbLine
10
153
20
280
11
181
21
280
0
LINE
5
347
100
AcDbEntity
8
Lichtgitter (Schaumstoff schwarz)
6
ByLayer
62
256
370
-1
100
AcDbLine
10
181
20
280
11
181
21
252
0
LINE
5
348
100
AcDbEntity
8
Lichtgitter (Schaumstoff schwarz)
6
ByLayer
62
256
370
-1
100
AcDbLine
10
181
20
252
11
153
21
252
0
LINE
5
349
100
AcDbEntity
8
Lichtgitter (Schaumstoff schwarz)
6
ByLayer
62
256
370
-1
100
AcDbLine
10
153
20
252
11
153
21
280
0
LINE
5
34A
100
AcDbEntity
8
Lichtgitter (Schaumstoff schwarz)
6
ByLayer
62
256
370
-1
100
AcDbLine
10
186
20
280
11
214
21
280
0
LINE
5
34B
100
AcDbEntity
8
Lichtgitter (Schaumstoff schwarz)
6
ByLayer
62
256
370
-1
100
AcDbLine
10
214
20
280
11
214
21
252
0
LINE
5
34C
100
AcDbEntity
8
Lichtgitter (Schaumstoff schwarz)
6
ByLayer
62
256
370
-1
100
AcDbLine
10
214
20
252
11
186
21
252
0
LINE
5
34D
100
AcDbEntity
8
Lichtgitter (Schaumstoff schwarz)
6
ByLayer
62
256
370
-1
100
AcDbLine
10
186
20
252
11
186
21
280
0
LINE
5
34E
100
AcDbEntity
8
Lichtgitter (Schaumstoff schwarz)
6
ByLayer
62
256
370
-1
100
AcDbLine
10
219
20
280
11
247
21
280
0
LINE
5
34F
100
AcDbEntity
8
Lichtgitter (Schaumstoff schwarz)
6
ByLayer
62
256
370
-1
100
AcDbLine
10
247
20
280
11
247
21
252
0
LINE
5
350
100
AcDbEntity
8
Lichtgitter (Schaumstoff schwarz)
6
ByLayer
62
256
370
-1
100
AcDbLine
10
247
20
252
11
219
21
252
0
LINE
5
351
100
AcDbEntity
8
Lichtgitter (Schaumstoff schwarz)
6
ByLayer
62
256
370
-1
100
AcDbLine
10
219
20
252
11
219
21
280
0
LINE
5
352
100
AcDbEntity
8
Lichtgitter (Schaumstoff schwarz)
6
ByLayer
62
256
370
-1
100
AcDbLine
10
252
20
280
11
280
21
280
0
LINE
5
353
100
AcDbEntity
8
Lichtgitter (Schaumstoff schwarz)
6
ByLayer
62
256
370
-1
100
AcDbLine
10
280
20
280
11
280
21
252
0
LINE
5
354
100
AcDbEntity
8
Lichtgitter (Schaumstoff schwarz)
6
ByLayer
62
256
370
-1
100
AcDbLine
10
280
20
252
11
252
21
252
0
LINE
5
355
100
AcDbEntity
8
Lichtgitter (Schaumstoff schwarz)
6
ByLayer
62
256
370
-1
100
AcDbLine
10
252
20
252
11
252
21
280
0
LINE
5
356
100
AcDbEntity
8
Lichtgitter (Schaumstoff schwarz)
6
ByLayer
62
256
370
-1
100
AcDbLine
10
285
20
280
11
313
21
280
0
LINE
5
357
100
AcDbEntity
8
Lichtgitter (Schaumstoff schwarz)
6
ByLayer
62
256
370
-1
100
AcDbLine
10
313
20
280
11
313
21
252
0
LINE
5
358
100
AcDbEntity
8
Lichtgitter (Schaumstoff schwarz)
6
ByLayer
62
256
370
-1
100
AcDbLine
10
313
20
252
11
285
21
252
0
LINE
5
359
100
AcDbEntity
8
Lichtgitter (Schaumstoff schwarz)
6
ByLayer
62
256
370
-1
100
AcDbLine
10
285
20
252
11
285
21
280
0
LINE
5
35A
100
AcDbEntity
8
Lichtgitter (Schaumstoff schwarz)
6
ByLayer
62
256
370
-1
100
AcDbLine
10
318
20
280
11
346
21
280
0
LINE
5
35B
100
AcDbEntity
8
Lichtgitter (Schaumstoff schwarz)
6
ByLayer
62
256
370
-1
100
AcDbLine
10
346
20
280
11
346
21
252
0
LINE
5
35C
100
AcDbEntity
8
Lichtgitter (Schaumstoff schwarz)
6
ByLayer
62
256
370
-1
100
AcDbLine
10
346
20
252
11
318
21
252
0
LINE
5
35D
100
AcDbEntity
8
Lichtgitter (Schaumstoff schwarz)
6
ByLayer
62
256
370
-1
100
AcDbLine
10
318
20
252
11
318
21
280
0
LINE
5
35E
100
AcDbEntity
8
Lichtgitter (Schaumstoff schwarz)
6
ByLayer
62
256
370
-1
100
AcDbLine
10
351
20
280
11
379
21
280
0
LINE
5
35F
100
AcDbEntity
8
Lichtgitter (Schaumstoff schwarz)
6
ByLayer
62
256
370
-1
100
AcDbLine
10
379
20
280
11
379
21
252
0
LINE
5
360
100
AcDbEntity
8
Lichtgitter (Schaumstoff schwarz)
6
ByLayer
62
256
370
-1
100
AcDbLine
10
379
20
252
11
351
21
252
0
LINE
5
361
100
AcDbEntity
8
Lichtgitter (Schaumstoff schwarz)
6
ByLayer
62
256
370
-1
100
AcDbLine
10
351
20
252
11
351
21
280
0
LINE
5
362
100
AcDbEntity
8
Lichtgitter (Schaumstoff schwarz)
6
ByLayer
62
256
370
-1
100
AcDbLine
10
21
20
247
11
49
21
247
0
LINE
5
363
100
AcDbEntity
8
Lichtgitter (Schaumstoff schwarz)
6
ByLayer
62
256
370
-1
100
AcDbLine
10
49
20
247
11
49
21
219
0
LINE
5
364
100
AcDbEntity
8
Lichtgitter (Schaumstoff schwarz)
6
ByLayer
62
256
370
-1
100
AcDbLine
10
49
20
219
11
21
21
219
0
LINE
5
365
100
AcDbEntity
8
Lichtgitter (Schaumstoff schwarz)
6
ByLayer
62
256
370
-1
100
AcDbLine
10
21
20
219
11
21
21
247
0
LINE
5
366
100
AcDbEntity
8
Lichtgitter (Schaumstoff schwarz)
6
ByLayer
62
256
370
-1
100
AcDbLine
10
54
20
247
11
82
21
247
0
LINE
5
367
100
AcDbEntity
8
Lichtgitter (Schaumstoff schwarz)
6
ByLayer
62
256
370
-1
100
AcDbLine
10
82
20
247
11
82
21
219
0
LINE
5
368
100
AcDbEntity
8
Lichtgitter (Schaumstoff schwarz)
6
ByLayer
62
256
370
-1
100
AcDbLine
10
82
20
219
11
54
21
219
0
LINE
5
369
100
AcDbEntity
8
Lichtgitter (Schaumstoff schwarz)
6
ByLayer
62
256
370
-1
100
AcDbLine
10
54
20
219
11
54
21
247
0
LINE
5
36A
100
AcDbEntity
8
Lichtgitter (Schaumstoff schwarz)
6
ByLayer
62
256
370
-1
100
AcDbLine
10
87
20
247
11
115
21
247
0
LINE
5
36B
100
AcDbEntity
8
Lichtgitter (Schaumstoff schwarz)
6
ByLayer
62
256
370
-1
100
AcDbLine
10
115
20
247
11
115
21
219
0
LINE
5
36C
100
AcDbEntity
8
Lichtgitter (Schaumstoff schwarz)
6
ByLayer
62
256
370
-1
100
AcDbLine
10
115
20
219
11
87
21
219
0
LINE
5
36D
100
AcDbEntity
8
Lichtgitter (Schaumstoff schwarz)
6
ByLayer
62
256
370
-1
100
AcDbLine
10
87
20
219
11
87
21
247
0
LINE
5
36E
100
AcDbEntity
8
Lichtgitter (Schaumstoff schwarz)
6
ByLayer
62
256
370
-1
100
AcDbLine
10
120
20
247
11
148
21
247
0
LINE
5
36F
100
AcDbEntity
8
Lichtgitter (Schaumstoff schwarz)
6
ByLayer
62
256
370
-1
100
AcDbLine
10
148
20
247
11
148
21
219
0
LINE
5
370
100
AcDbEntity
8
Lichtgitter (Schaumstoff schwarz)
6
ByLayer
62
256
370
-1
100
AcDbLine
10
148
20
219
11
120
21
219
0
LINE
5
371
100
AcDbEntity
8
Lichtgitter (Schaumstoff schwarz)
6
ByLayer
62
256
370
-1
100
AcDbLine
10
120
20
219
11
120
21
247
0
LINE
5
372
100
AcDbEntity
8
Lichtgitter (Schaumstoff schwarz)
6
ByLayer
62
256
370
-1
100
AcDbLine
10
153
20
247
11
181
21
247
0
LINE
5
373
100
AcDbEntity
8
Lichtgitter (Schaumstoff schwarz)
6
ByLayer
62
256
370
-1
100
AcDbLine
10
181
20
247
11
181
21
219
0
LINE
5
374
100
AcDbEntity
8
Lichtgitter (Schaumstoff schwarz)
6
ByLayer
62
256
370
-1
100
AcDbLine
10
181
20
219
11
153
21
219
0
LINE
5
375
100
AcDbEntity
8
Lichtgitter (Schaumstoff schwarz)
6
ByLayer
62
256
370
-1
100
AcDbLine
10
153
20
219
11
153
21
247
0
LINE
5
376
100
AcDbEntity
8
Lichtgitter (Schaumstoff schwarz)
6
ByLayer
62
256
370
-1
100
AcDbLine
10
186
20
247
11
214
21
247
0
LINE
5
377
100
AcDbEntity
8
Lichtgitter (Schaumstoff schwarz)
6
ByLayer
62
256
370
-1
100
AcDbLine
10
214
20
247
11
214
21
219
0
LINE
5
378
100
AcDbEntity
8
Lichtgitter (Schaumstoff schwarz)
6
ByLayer
62
256
370
-1
100
AcDbLine
10
214
20
219
11
186
21
219
0
LINE
5
379
100
AcDbEntity
8
Lichtgitter (Schaumstoff schwarz)
6
ByLayer
62
256
370
-1
100
AcDbLine
10
186
20
219
11
186
21
247
0
LINE
5
37A
100
AcDbEntity
8
Lichtgitter (Schaumstoff schwarz)
6
ByLayer
62
256
370
-1
100
AcDbLine
10
219
20
247
11
247
21
247
0
LINE
5
37B
100
AcDbEntity
8
Lichtgitter (Schaumstoff schwarz)
6
ByLayer
62
256
370
-1
100
AcDbLine
10
247
20
247
11
247
21
219
0
LINE
5
37C
100
AcDbEntity
8
Lichtgitter (Schaumstoff schwarz)
6
ByLayer
62
256
370
-1
100
AcDbLine
10
247
20
219
11
219
21
219
0
LINE
5
37D
100
AcDbEntity
8
Lichtgitter (Schaumstoff schwarz)
6
ByLayer
62
256
370
-1
100
AcDbLine
10
219
20
219
11
219
21
247
0
LINE
5
37E
100
AcDbEntity
8
Lichtgitter (Schaumstoff schwarz)
6
ByLayer
62
256
370
-1
100
AcDbLine
10
252
20
247
11
280
21
247
0
LINE
5
37F
100
AcDbEntity
8
Lichtgitter (Schaumstoff schwarz)
6
ByLayer
62
256
370
-1
100
AcDbLine
10
280
20
247
11
280
21
219
0
LINE
5
380
100
AcDbEntity
8
Lichtgitter (Schaumstoff schwarz)
6
ByLayer
62
256
370
-1
100
AcDbLine
10
280
20
219
11
252
21
219
0
LINE
5
381
100
AcDbEntity
8
Lichtgitter (Schaumstoff schwarz)
6
ByLayer
62
256
370
-1
100
AcDbLine
10
252
20
219
11
252
21
247
0
LINE
5
382
100
AcDbEntity
8
Lichtgitter (Schaumstoff schwarz)
6
ByLayer
62
256
370
-1
100
AcDbLine
10
285
20
247
11
313
21
247
0
LINE
5
383
100
AcDbEntity
8
Lichtgitter (Schaumstoff schwarz)
6
ByLayer
62
256
370
-1
100
AcDbLine
10
313
20
247
11
313
21
219
0
LINE
5
384
100
AcDbEntity
8
Lichtgitter (Schaumstoff schwarz)
6
ByLayer
62
256
370
-1
100
AcDbLine
10
313
20
219
11
285
21
219
0
LINE
5
385
100
AcDbEntity
8
Lichtgitter (Schaumstoff schwarz)
6
ByLayer
62
256
370
-1
100
AcDbLine
10
285
20
219
11
285
21
247
0
LINE
5
386
100
AcDbEntity
8
Lichtgitter (Schaumstoff schwarz)
6
ByLayer
62
256
370
-1
100
AcDbLine
10
318
20
247
11
346
21
247
0
LINE
5
387
100
AcDbEntity
8
Lichtgitter (Schaumstoff schwarz)
6
ByLayer
62
256
370
-1
100
AcDbLine
10
346
20
247
11
346
21
219
0
LINE
5
388
100
AcDbEntity
8
Lichtgitter (Schaumstoff schwarz)
6
ByLayer
62
256
370
-1
100
AcDbLine
10
346
20
219
11
318
21
219
0
LINE
5
389
100
AcDbEntity
8
Lichtgitter (Schaumstoff schwarz)
6
ByLayer
62
256
370
-1
100
AcDbLine
10
318
20
219
11
318
21
247
0
LINE
5
38A
100
AcDbEntity
8
Lichtgitter (Schaumstoff schwarz)
6
ByLayer
62
256
370
-1
100
AcDbLine
10
351
20
247
11
379
21
247
0
LINE
5
38B
100
AcDbEntity
8
Lichtgitter (Schaumstoff schwarz)
6
ByLayer
62
256
370
-1
100
AcDbLine
10
379
20
247
11
379
21
219
0
LINE
5
38C
100
AcDbEntity
8
Lichtgitter (Schaumstoff schwarz)
6
ByLayer
62
256
370
-1
100
AcDbLine
10
379
20
219
11
351
21
219
0
LINE
5
38D
100
AcDbEntity
8
Lichtgitter (Schaumstoff schwarz)
6
ByLayer
62
256
370
-1
100
AcDbLine
10
351
20
219
11
351
21
247
0
LINE
5
38E
100
AcDbEntity
8
Lichtgitter (Schaumstoff schwarz)
6
ByLayer
62
256
370
-1
100
AcDbLine
10
21
20
214
11
49
21
214
0
LINE
5
38F
100
AcDbEntity
8
Lichtgitter (Schaumstoff schwarz)
6
ByLayer
62
256
370
-1
100
AcDbLine
10
49
20
214
11
49
21
186
0
LINE
5
390
100
AcDbEntity
8
Lichtgitter (Schaumstoff schwarz)
6
ByLayer
62
256
370
-1
100
AcDbLine
10
49
20
186
11
21
21
186
0
LINE
5
391
100
AcDbEntity
8
Lichtgitter (Schaumstoff schwarz)
6
ByLayer
62
256
370
-1
100
AcDbLine
10
21
20
186
11
21
21
214
0
LINE
5
392
100
AcDbEntity
8
Lichtgitter (Schaumstoff schwarz)
6
ByLayer
62
256
370
-1
100
AcDbLine
10
54
20
214
11
82
21
214
0
LINE
5
393
100
AcDbEntity
8
Lichtgitter (Schaumstoff schwarz)
6
ByLayer
62
256
370
-1
100
AcDbLine
10
82
20
214
11
82
21
186
0
LINE
5
394
100
AcDbEntity
8
Lichtgitter (Schaumstoff schwarz)
6
ByLayer
62
256
370
-1
100
AcDbLine
10
82
20
186
11
54
21
186
0
LINE
5
395
100
AcDbEntity
8
Lichtgitter (Schaumstoff schwarz)
6
ByLayer
62
256
370
-1
100
AcDbLine
10
54
20
186
11
54
21
214
0
LINE
5
396
100
AcDbEntity
8
Lichtgitter (Schaumstoff schwarz)
6
ByLayer
62
256
370
-1
100
AcDbLine
10
87
20
214
11
115
21
214
0
LINE
5
397
100
AcDbEntity
8
Lichtgitter (Schaumstoff schwarz)
6
ByLayer
62
256
370
-1
100
AcDbLine
10
115
20
214
11
115
21
186
0
LINE
5
398
100
AcDbEntity
8
Lichtgitter (Schaumstoff schwarz)
6
ByLayer
62
256
370
-1
100
AcDbLine
10
115
20
186
11
87
21
186
0
LINE
5
399
100
AcDbEntity
8
Lichtgitter (Schaumstoff schwarz)
6
ByLayer
62
256
370
-1
100
AcDbLine
10
87
20
186
11
87
21
214
0
LINE
5
39A
100
AcDbEntity
8
Lichtgitter (Schaumstoff schwarz)
6
ByLayer
62
256
370
-1
100
AcDbLine
10
120
20
214
11
148
21
214
0
LINE
5
39B
100
AcDbEntity
8
Lichtgitter (Schaumstoff schwarz)
6
ByLayer
62
256
370
-1
100
AcDbLine
10
148
20
214
11
148
21
186
0
LINE
5
39C
100
AcDbEntity
8
Lichtgitter (Schaumstoff schwarz)
6
ByLayer
62
256
370
-1
100
AcDbLine
10
148
20
186
11
120
21
186
0
LINE
5
39D
100
AcDbEntity
8
Lichtgitter (Schaumstoff schwarz)
6
ByLayer
62
256
370
-1
100
AcDbLine
10
120
20
186
11
120
21
214
0
LINE
5
39E
100
AcDbEntity
8
Lichtgitter (Schaumstoff schwarz)
6
ByLayer
62
256
370
-1
100
AcDbLine
10
153
20
214
11
181
21
214
0
LINE
5
39F
100
AcDbEntity
8
Lichtgitter (Schaumstoff schwarz)
6
ByLayer
62
256
370
-1
100
AcDbLine
10
181
20
214
11
181
21
186
0
LINE
5
3A0
100
AcDbEntity
8
Lichtgitter (Schaumstoff schwarz)
6
ByLayer
62
256
370
-1
100
AcDbLine
10
181
20
186
11
153
21
186
0
LINE
5
3A1
100
AcDbEntity
8
Lichtgitter (Schaumstoff schwarz)
6
ByLayer
62
256
370
-1
100
AcDbLine
10
153
20
186
11
153
21
214
0
LINE
5
3A2
100
AcDbEntity
8
Lichtgitter (Schaumstoff schwarz)
6
ByLayer
62
256
370
-1
100
AcDbLine
10
186
20
214
11
214
21
214
0
LINE
5
3A3
100
AcDbEntity
8
Lichtgitter (Schaumstoff schwarz)
6
ByLayer
62
256
370
-1
100
AcDbLine
10
214
20
214
11
214
21
186
0
LINE
5
3A4
100
AcDbEntity
8
Lichtgitter (Schaumstoff schwarz)
6
ByLayer
62
256
370
-1
100
AcDbLine
10
214
20
186
11
186
21
186
0
LINE
5
3A5
100
AcDbEntity
8
Lichtgitter (Schaumstoff schwarz)
6
ByLayer
62
256
370
-1
100
AcDbLine
10
186
20
186
11
186
21
214
0
LINE
5
3A6
100
AcDbEntity
8
Lichtgitter (Schaumstoff schwarz)
6
ByLayer
62
256
370
-1
100
AcDbLine
10
219
20
214
11
247
21
214
0
LINE
5
3A7
100
AcDbEntity
8
Lichtgitter (Schaumstoff schwarz)
6
ByLayer
62
256
370
-1
100
AcDbLine
10
247
20
214
11
247
21
186
0
LINE
5
3A8
100
AcDbEntity
8
Lichtgitter (Schaumstoff schwarz)
6
ByLayer
62
256
370
-1
100
AcDbLine
10
247
20
186
11
219
21
186
0
LINE
5
3A9
100
AcDbEntity
8
Lichtgitter (Schaumstoff schwarz)
6
ByLayer
62
256
370
-1
100
AcDbLine
10
219
20
186
11
219
21
214
0
LINE
5
3AA
100
AcDbEntity
8
Lichtgitter (Schaumstoff schwarz)
6
ByLayer
62
256
370
-1
100
AcDbLine
10
252
20
214
11
280
21
214
0
LINE
5
3AB
100
AcDbEntity
8
Lichtgitter (Schaumstoff schwarz)
6
ByLayer
62
256
370
-1
100
AcDbLine
10
280
20
214
11
280
21
186
0
LINE
5
3AC
100
AcDbEntity
8
Lichtgitter (Schaumstoff schwarz)
6
ByLayer
62
256
370
-1
100
AcDbLine
10
280
20
186
11
252
21
186
0
LINE
5
3AD
100
AcDbEntity
8
Lichtgitter (Schaumstoff schwarz)
6
ByLayer
62
256
370
-1
100
AcDbLine
10
252
20
186
11
252
21
214
0
LINE
5
3AE
100
AcDbEntity
8
Lichtgitter (Schaumstoff schwarz)
6
ByLayer
62
256
370
-1
100
AcDbLine
10
285
20
214
11
313
21
214
0
LINE
5
3AF
100
AcDbEntity
8
Lichtgitter (Schaumstoff schwarz)
6
ByLayer
62
256
370
-1
100
AcDbLine
10
313
20
214
11
313
21
186
0
LINE
5
3B0
100
AcDbEntity
8
Lichtgitter (Schaumstoff schwarz)
6
ByLayer
62
256
370
-1
100
AcDbLine
10
313
20
186
11
285
21
186
0
LINE
5
3B1
100
AcDbEntity
8
Lichtgitter (Schaumstoff schwarz)
6
ByLayer
62
256
370
-1
100
AcDbLine
10
285
20
186
11
285
21
214
0
LINE
5
3B2
100
AcDbEntity
8
Lichtgitter (Schaumstoff schwarz)
6
ByLayer
62
256
370
-1
100
AcDbLine
10
318
20
214
11
346
21
214
0
LINE
5
3B3
100
AcDbEntity
8
Lichtgitter (Schaumstoff schwarz)
6
ByLayer
62
256
370
-1
100
AcDbLine
10
346
20
214
11
346
21
186
0
LINE
5
3B4
100
AcDbEntity
8
Lichtgitter (Schaumstoff schwarz)
6
ByLayer
62
256
370
-1
100
AcDbLine
10
346
20
186
11
318
21
186
0
LINE
5
3B5
100
AcDbEntity
8
Lichtgitter (Schaumstoff schwarz)
6
ByLayer
62
256
370
-1
100
AcDbLine
10
318
20
186
11
318
21
214
0
LINE
5
3B6
100
AcDbEntity
8
Lichtgitter (Schaumstoff schwarz)
6
ByLayer
62
256
370
-1
100
AcDbLine
10
351
20
214
11
379
21
214
0
LINE
5
3B7
100
AcDbEntity
8
Lichtgitter (Schaumstoff schwarz)
6
ByLayer
62
256
370
-1
100
AcDbLine
10
379
20
214
11
379
21
186
0
LINE
5
3B8
100
AcDbEntity
8
Lichtgitter (Schaumstoff schwarz)
6
ByLayer
62
256
370
-1
100
AcDbLine
10
379
20
186
11
351
21
186
0
LINE
5
3B9
100
AcDbEntity
8
Lichtgitter (Schaumstoff schwarz)
6
ByLayer
62
256
370
-1
100
AcDbLine
10
351
20
186
11
351
21
214
0
LINE
5
3BA
100
AcDbEntity
8
Lichtgitter (Schaumstoff schwarz)
6
ByLayer
62
256
370
-1
100
AcDbLine
10
21
20
181
11
49
21
181
0
LINE
5
3BB
100
AcDbEntity
8
Lichtgitter (Schaumstoff schwarz)
6
ByLayer
62
256
370
-1
100
AcDbLine
10
49
20
181
11
49
21
153
0
LINE
5
3BC
100
AcDbEntity
8
Lichtgitter (Schaumstoff schwarz)
6
ByLayer
62
256
370
-1
100
AcDbLine
10
49
20
153
11
21
21
153
0
LINE
5
3BD
100
AcDbEntity
8
Lichtgitter (Schaumstoff schwarz)
6
ByLayer
62
256
370
-1
100
AcDbLine
10
21
20
153
11
21
21
181
0
LINE
5
3BE
100
AcDbEntity
8
Lichtgitter (Schaumstoff schwarz)
6
ByLayer
62
256
370
-1
100
AcDbLine
10
54
20
181
11
82
21
181
0
LINE
5
3BF
100
AcDbEntity
8
Lichtgitter (Schaumstoff schwarz)
6
ByLayer
62
256
370
-1
100
AcDbLine
10
82
20
181
11
82
21
153
0
LINE
5
3C0
100
AcDbEntity
8
Lichtgitter (Schaumstoff schwarz)
6
ByLayer
62
256
370
-1
100
AcDbLine
10
82
20
153
11
54
21
153
0
LINE
5
3C1
100
AcDbEntity
8
Lichtgitter (Schaumstoff schwarz)
6
ByLayer
62
256
370
-1
100
AcDbLine
10
54
20
153
11
54
21
181
0
LINE
5
3C2
100
AcDbEntity
8
Lichtgitter (Schaumstoff schwarz)
6
ByLayer
62
256
370
-1
100
AcDbLine
10
87
20
181
11
115
21
181
0
LINE
5
3C3
100
AcDbEntity
8
Lichtgitter (Schaumstoff schwarz)
6
ByLayer
62
256
370
-1
100
AcDbLine
10
115
20
181
11
115
21
153
0
LINE
5
3C4
100
AcDbEntity
8
Lichtgitter (Schaumstoff schwarz)
6
ByLayer
62
256
370
-1
100
AcDbLine
10
115
20
153
11
87
21
153
0
LINE
5
3C5
100
AcDbEntity
8
Lichtgitter (Schaumstoff schwarz)
6
ByLayer
62
256
370
-1
100
AcDbLine
10
87
20
153
11
87
21
181
0
LINE
5
3C6
100
AcDbEntity
8
Lichtgitter (Schaumstoff schwarz)
6
ByLayer
62
256
370
-1
100
AcDbLine
10
120
20
181
11
148
21
181
0
LINE
5
3C7
100
AcDbEntity
8
Lichtgitter (Schaumstoff schwarz)
6
ByLayer
62
256
370
-1
100
AcDbLine
10
148
20
181
11
148
21
153
0
LINE
5
3C8
100
AcDbEntity
8
Lichtgitter (Schaumstoff schwarz)
6
ByLayer
62
256
370
-1
100
AcDbLine
10
148
20
153
11
120
21
153
0
LINE
5
3C9
100
AcDbEntity
8
Lichtgitter (Schaumstoff schwarz)
6
ByLayer
62
256
370
-1
100
AcDbLine
10
120
20
153
11
120
21
181
0
LINE
5
3CA
100
AcDbEntity
8
Lichtgitter (Schaumstoff schwarz)
6
ByLayer
62
256
370
-1
100
AcDbLine
10
153
20
181
11
181
21
181
0
LINE
5
3CB
100
AcDbEntity
8
Lichtgitter (Schaumstoff schwarz)
6
ByLayer
62
256
370
-1
100
AcDbLine
10
181
20
181
11
181
21
153
0
LINE
5
3CC
100
AcDbEntity
8
Lichtgitter (Schaumstoff schwarz)
6
ByLayer
62
256
370
-1
100
AcDbLine
10
181
20
153
11
153
21
153
0
LINE
5
3CD
100
AcDbEntity
8
Lichtgitter (Schaumstoff schwarz)
6
ByLayer
62
256
370
-1
100
AcDbLine
10
153
20
153
11
153
21
181
0
LINE
5
3CE
100
AcDbEntity
8
Lichtgitter (Schaumstoff schwarz)
6
ByLayer
62
256
370
-1
100
AcDbLine
10
186
20
181
11
214
21
181
0
LINE
5
3CF
100
AcDbEntity
8
Lichtgitter (Schaumstoff schwarz)
6
ByLayer
62
256
370
-1
100
AcDbLine
10
214
20
181
11
214
21
153
0
LINE
5
3D0
100
AcDbEntity
8
Lichtgitter (Schaumstoff schwarz)
6
ByLayer
62
256
370
-1
100
AcDbLine
10
214
20
153
11
186
21
153
0
LINE
5
3D1
100
AcDbEntity
8
Lichtgitter (Schaumstoff schwarz)
6
ByLayer
62
256
370
-1
100
AcDbLine
10
186
20
153
11
186
21
181
0
LINE
5
3D2
100
AcDbEntity
8
Lichtgitter (Schaumstoff schwarz)
6
ByLayer
62
256
370
-1
100
AcDbLine
10
219
20
181
11
247
21
181
0
LINE
5
3D3
100
AcDbEntity
8
Lichtgitter (Schaumstoff schwarz)
6
ByLayer
62
256
370
-1
100
AcDbLine
10
247
20
181
11
247
21
153
0
LINE
5
3D4
100
AcDbEntity
8
Lichtgitter (Schaumstoff schwarz)
6
ByLayer
62
256
370
-1
100
AcDbLine
10
247
20
153
11
219
21
153
0
LINE
5
3D5
100
AcDbEntity
8
Lichtgitter (Schaumstoff schwarz)
6
ByLayer
62
256
370
-1
100
AcDbLine
10
219
20
153
11
219
21
181
0
LINE
5
3D6
100
AcDbEntity
8
Lichtgitter (Schaumstoff schwarz)
6
ByLayer
62
256
370
-1
100
AcDbLine
10
252
20
181
11
280
21
181
0
LINE
5
3D7
100
AcDbEntity
8
Lichtgitter (Schaumstoff schwarz)
6
ByLayer
62
256
370
-1
100
AcDbLine
10
280
20
181
11
280
21
153
0
LINE
5
3D8
100
AcDbEntity
8
Lichtgitter (Schaumstoff schwarz)
6
ByLayer
62
256
370
-1
100
AcDbLine
10
280
20
153
11
252
21
153
0
LINE
5
3D9
100
AcDbEntity
8
Lichtgitter (Schaumstoff schwarz)
6
ByLayer
62
256
370
-1
100
AcDbLine
10
252
20
153
11
252
21
181
0
LINE
5
3DA
100
AcDbEntity
8
Lichtgitter (Schaumstoff schwarz)
6
ByLayer
62
256
370
-1
100
AcDbLine
10
285
20
181
11
313
21
181
0
LINE
5
3DB
100
AcDbEntity
8
Lichtgitter (Schaumstoff schwarz)
6
ByLayer
62
256
370
-1
100
AcDbLine
10
313
20
181
11
313
21
153
0
LINE
5
3DC
100
AcDbEntity
8
Lichtgitter (Schaumstoff schwarz)
6
ByLayer
62
256
370
-1
100
AcDbLine
10
313
20
153
11
285
21
153
0
LINE
5
3DD
100
AcDbEntity
8
Lichtgitter (Schaumstoff schwarz)
6
ByLayer
62
256
370
-1
100
AcDbLine
10
285
20
153
11
285
21
181
0
LINE
5
3DE
100
AcDbEntity
8
Lichtgitter (Schaumstoff schwarz)
6
ByLayer
62
256
370
-1
100
AcDbLine
10
318
20
181
11
346
21
181
0
LINE
5
3DF
100
AcDbEntity
8
Lichtgitter (Schaumstoff schwarz)
6
ByLayer
62
256
370
-1
100
AcDbLine
10
346
20
181
11
346
21
153
0
LINE
5
3E0
100
AcDbEntity
8
Lichtgitter (Schaumstoff schwarz)
6
ByLayer
62
256
370
-1
100
AcDbLine
10
346
20
153
11
318
21
153
0
LINE
5
3E1
100
AcDbEntity
8
Lichtgitter (Schaumstoff schwarz)
6
ByLayer
62
256
370
-1
100
AcDbLine
10
318
20
153
11
318
21
181
0
LINE
5
3E2
100
AcDbEntity
8
Lichtgitter (Schaumstoff schwarz)
6
ByLayer
62
256
370
-1
100
AcDbLine
10
351
20
181
11
379
21
181
0
LINE
5
3E3
100
AcDbEntity
8
Lichtgitter (Schaumstoff schwarz)
6
ByLayer
62
256
370
-1
100
AcDbLine
10
379
20
181
11
379
21
153
0
LINE
5
3E4
100
AcDbEntity
8
Lichtgitter (Schaumstoff schwarz)
6
ByLayer
62
256
370
-1
100
AcDbLine
10
379
20
153
11
351
21
153
0
LINE
5
3E5
100
AcDbEntity
8
Lichtgitter (Schaumstoff schwarz)
6
ByLayer
62
256
370
-1
100
AcDbLine
10
351
20
153
11
351
21
181
0
LINE
5
3E6
100
AcDbEntity
8
Lichtgitter (Schaumstoff schwarz)
6
ByLayer
62
256
370
-1
100
AcDbLine
10
21
20
148
11
49
21
148
0
LINE
5
3E7
100
AcDbEntity
8
Lichtgitter (Schaumstoff schwarz)
6
ByLayer
62
256
370
-1
100
AcDbLine
10
49
20
148
11
49
21
120
0
LINE
5
3E8
100
AcDbEntity
8
Lichtgitter (Schaumstoff schwarz)
6
ByLayer
62
256
370
-1
100
AcDbLine
10
49
20
120
11
21
21
120
0
LINE
5
3E9
100
AcDbEntity
8
Lichtgitter (Schaumstoff schwarz)
6
ByLayer
62
256
370
-1
100
AcDbLine
10
21
20
120
11
21
21
148
0
LINE
5
3EA
100
AcDbEntity
8
Lichtgitter (Schaumstoff schwarz)
6
ByLayer
62
256
370
-1
100
AcDbLine
10
54
20
148
11
82
21
148
0
LINE
5
3EB
100
AcDbEntity
8
Lichtgitter (Schaumstoff schwarz)
6
ByLayer
62
256
370
-1
100
AcDbLine
10
82
20
148
11
82
21
120
0
LINE
5
3EC
100
AcDbEntity
8
Lichtgitter (Schaumstoff schwarz)
6
ByLayer
62
256
370
-1
100
AcDbLine
10
82
20
120
11
54
21
120
0
LINE
5
3ED
100
AcDbEntity
8
Lichtgitter (Schaumstoff schwarz)
6
ByLayer
62
256
370
-1
100
AcDbLine
10
54
20
120
11
54
21
148
0
LINE
5
3EE
100
AcDbEntity
8
Lichtgitter (Schaumstoff schwarz)
6
ByLayer
62
256
370
-1
100
AcDbLine
10
87
20
148
11
115
21
148
0
LINE
5
3EF
100
AcDbEntity
8
Lichtgitter (Schaumstoff schwarz)
6
ByLayer
62
256
370
-1
100
AcDbLine
10
115
20
148
11
115
21
120
0
LINE
5
3F0
100
AcDbEntity
8
Lichtgitter (Schaumstoff schwarz)
6
ByLayer
62
256
370
-1
100
AcDbLine
10
115
20
120
11
87
21
120
0
LINE
5
3F1
100
AcDbEntity
8
Lichtgitter (Schaumstoff schwarz)
6
ByLayer
62
256
370
-1
100
AcDbLine
10
87
20
120
11
87
21
148
0
LINE
5
3F2
100
AcDbEntity
8
Lichtgitter (Schaumstoff schwarz)
6
ByLayer
62
256
370
-1
100
AcDbLine
10
120
20
148
11
148
21
148
0
LINE
5
3F3
100
AcDbEntity
8
Lichtgitter (Schaumstoff schwarz)
6
ByLayer
62
256
370
-1
100
AcDbLine
10
148
20
148
11
148
21
120
0
LINE
5
3F4
100
AcDbEntity
8
Lichtgitter (Schaumstoff schwarz)
6
ByLayer
62
256
370
-1
100
AcDbLine
10
148
20
120
11
120
21
120
0
LINE
5
3F5
100
AcDbEntity
8
Lichtgitter (Schaumstoff schwarz)
6
ByLayer
62
256
370
-1
100
AcDbLine
10
120
20
120
11
120
21
148
0
LINE
5
3F6
100
AcDbEntity
8
Lichtgitter (Schaumstoff schwarz)
6
ByLayer
62
256
370
-1
100
AcDbLine
10
153
20
148
11
181
21
148
0
LINE
5
3F7
100
AcDbEntity
8
Lichtgitter (Schaumstoff schwarz)
6
ByLayer
62
256
370
-1
100
AcDbLine
10
181
20
148
11
181
21
120
0
LINE
5
3F8
100
AcDbEntity
8
Lichtgitter (Schaumstoff schwarz)
6
ByLayer
62
256
370
-1
100
AcDbLine
10
181
20
120
11
153
21
120
0
LINE
5
3F9
100
AcDbEntity
8
Lichtgitter (Schaumstoff schwarz)
6
ByLayer
62
256
370
-1
100
AcDbLine
10
153
20
120
11
153
21
148
0
LINE
5
3FA
100
AcDbEntity
8
Lichtgitter (Schaumstoff schwarz)
6
ByLayer
62
256
370
-1
100
AcDbLine
10
186
20
148
11
214
21
148
0
LINE
5
3FB
100
AcDbEntity
8
Lichtgitter (Schaumstoff schwarz)
6
ByLayer
62
256
370
-1
100
AcDbLine
10
214
20
148
11
214
21
120
0
LINE
5
3FC
100
AcDbEntity
8
Lichtgitter (Schaumstoff schwarz)
6
ByLayer
62
256
370
-1
100
AcDbLine
10
214
20
120
11
186
21
120
0
LINE
5
3FD
100
AcDbEntity
8
Lichtgitter (Schaumstoff schwarz)
6
ByLayer
62
256
370
-1
100
AcDbLine
10
186
20
120
11
186
21
148
0
LINE
5
3FE
100
AcDbEntity
8
Lichtgitter (Schaumstoff schwarz)
6
ByLayer
62
256
370
-1
100
AcDbLine
10
219
20
148
11
247
21
148
0
LINE
5
3FF
100
AcDbEntity
8
Lichtgitter (Schaumstoff schwarz)
6
ByLayer
62
256
370
-1
100
AcDbLine
10
247
20
148
11
247
21
120
0
LINE
5
400
100
AcDbEntity
8
Lichtgitter (Schaumstoff schwarz)
6
ByLayer
62
256
370
-1
100
AcDbLine
10
247
20
120
11
219
21
120
0
LINE
5
401
100
AcDbEntity
8
Lichtgitter (Schaumstoff schwarz)
6
ByLayer
62
256
370
-1
100
AcDbLine
10
219
20
120
11
219
21
148
0
LINE
5
402
100
AcDbEntity
8
Lichtgitter (Schaumstoff schwarz)
6
ByLayer
62
256
370
-1
100
AcDbLine
10
252
20
148
11
280
21
148
0
LINE
5
403
100
AcDbEntity
8
Lichtgitter (Schaumstoff schwarz)
6
ByLayer
62
256
370
-1
100
AcDbLine
10
280
20
148
11
280
21
120
0
LINE
5
404
100
AcDbEntity
8
Lichtgitter (Schaumstoff schwarz)
6
ByLayer
62
256
370
-1
100
AcDbLine
10
280
20
120
11
252
21
120
0
LINE
5
405
100
AcDbEntity
8
Lichtgitter (Schaumstoff schwarz)
6
ByLayer
62
256
370
-1
100
AcDbLine
10
252
20
120
11
252
21
148
0
LINE
5
406
100
AcDbEntity
8
Lichtgitter (Schaumstoff schwarz)
6
ByLayer
62
256
370
-1
100
AcDbLine
10
285
20
148
11
313
21
148
0
LINE
5
407
100
AcDbEntity
8
Lichtgitter (Schaumstoff schwarz)
6
ByLayer
62
256
370
-1
100
AcDbLine
10
313
20
148
11
313
21
120
0
LINE
5
408
100
AcDbEntity
8
Lichtgitter (Schaumstoff schwarz)
6
ByLayer
62
256
370
-1
100
AcDbLine
10
313
20
120
11
285
21
120
0
LINE
5
409
100
AcDbEntity
8
Lichtgitter (Schaumstoff schwarz)
6
ByLayer
62
256
370
-1
100
AcDbLine
10
285
20
120
11
285
21
148
0
LINE
5
40A
100
AcDbEntity
8
Lichtgitter (Schaumstoff schwarz)
6
ByLayer
62
256
370
-1
100
AcDbLine
10
318
20
148
11
346
21
148
0
LINE
5
40B
100
AcDbEntity
8
Lichtgitter (Schaumstoff schwarz)
6
ByLayer
62
256
370
-1
100
AcDbLine
10
346
20
148
11
346
21
120
0
LINE
5
40C
100
AcDbEntity
8
Lichtgitter (Schaumstoff schwarz)
6
ByLayer
62
256
370
-1
100
AcDbLine
10
346
20
120
11
318
21
120
0
LINE
5
40D
100
AcDbEntity
8
Lichtgitter (Schaumstoff schwarz)
6
ByLayer
62
256
370
-1
100
AcDbLine
10
318
20
120
11
318
21
148
0
LINE
5
40E
100
AcDbEntity
8
Lichtgitter (Schaumstoff schwarz)
6
ByLayer
62
256
370
-1
100
AcDbLine
10
351
20
148
11
379
21
148
0
LINE
5
40F
100
AcDbEntity
8
Lichtgitter (Schaumstoff schwarz)
6
ByLayer
62
256
370
-1
100
AcDbLine
10
379
20
148
11
379
21
120
0
LINE
5
410
100
AcDbEntity
8
Lichtgitter (Schaumstoff schwarz)
6
ByLayer
62
256
370
-1
100
AcDbLine
10
379
20
120
11
351
21
120
0
LINE
5
411
100
AcDbEntity
8
Lichtgitter (Schaumstoff schwarz)
6
ByLayer
62
256
370
-1
100
AcDbLine
10
351
20
120
11
351
21
148
0
LINE
5
412
100
AcDbEntity
8
Lichtgitter (Schaumstoff schwarz)
6
ByLayer
62
256
370
-1
100
AcDbLine
10
21
20
115
11
49
21
115
0
LINE
5
413
100
AcDbEntity
8
Lichtgitter (Schaumstoff schwarz)
6
ByLayer
62
256
370
-1
100
AcDbLine
10
49
20
115
11
49
21
87
0
LINE
5
414
100
AcDbEntity
8
Lichtgitter (Schaumstoff schwarz)
6
ByLayer
62
256
370
-1
100
AcDbLine
10
49
20
87
11
21
21
87
0
LINE
5
415
100
AcDbEntity
8
Lichtgitter (Schaumstoff schwarz)
6
ByLayer
62
256
370
-1
100
AcDbLine
10
21
20
87
11
21
21
115
0
LINE
5
416
100
AcDbEntity
8
Lichtgitter (Schaumstoff schwarz)
6
ByLayer
62
256
370
-1
100
AcDbLine
10
54
20
115
11
82
21
115
0
LINE
5
417
100
AcDbEntity
8
Lichtgitter (Schaumstoff schwarz)
6
ByLayer
62
256
370
-1
100
AcDbLine
10
82
20
115
11
82
21
87
0
LINE
5
418
100
AcDbEntity
8
Lichtgitter (Schaumstoff schwarz)
6
ByLayer
62
256
370
-1
100
AcDbLine
10
82
20
87
11
54
21
87
0
LINE
5
419
100
AcDbEntity
8
Lichtgitter (Schaumstoff schwarz)
6
ByLayer
62
256
370
-1
100
AcDbLine
10
54
20
87
11
54
21
115
0
LINE
5
41A
100
AcDbEntity
8
Lichtgitter (Schaumstoff schwarz)
6
ByLayer
62
256
370
-1
100
AcDbLine
10
87
20
115
11
115
21
115
0
LINE
5
41B
100
AcDbEntity
8
Lichtgitter (Schaumstoff schwarz)
6
ByLayer
62
256
370
-1
100
AcDbLine
10
115
20
115
11
115
21
87
0
LINE
5
41C
100
AcDbEntity
8
Lichtgitter (Schaumstoff schwarz)
6
ByLayer
62
256
370
-1
100
AcDbLine
10
115
20
87
11
87
21
87
0
LINE
5
41D
100
AcDbEntity
8
Lichtgitter (Schaumstoff schwarz)
6
ByLayer
62
256
370
-1
100
AcDbLine
10
87
20
87
11
87
21
115
0
LINE
5
41E
100
AcDbEntity
8
Lichtgitter (Schaumstoff schwarz)
6
ByLayer
62
256
370
-1
100
AcDbLine
10
120
20
115
11
148
21
115
0
LINE
5
41F
100
AcDbEntity
8
Lichtgitter (Schaumstoff schwarz)
6
ByLayer
62
256
370
-1
100
AcDbLine
10
148
20
115
11
148
21
87
0
LINE
5
420
100
AcDbEntity
8
Lichtgitter (Schaumstoff schwarz)
6
ByLayer
62
256
370
-1
100
AcDbLine
10
148
20
87
11
120
21
87
0
LINE
5
421
100
AcDbEntity
8
Lichtgitter (Schaumstoff schwarz)
6
ByLayer
62
256
370
-1
100
AcDbLine
10
120
20
87
11
120
21
115
0
LINE
5
422
100
AcDbEntity
8
Lichtgitter (Schaumstoff schwarz)
6
ByLayer
62
256
370
-1
100
AcDbLine
10
153
20
115
11
181
21
115
0
LINE
5
423
100
AcDbEntity
8
Lichtgitter (Schaumstoff schwarz)
6
ByLayer
62
256
370
-1
100
AcDbLine
10
181
20
115
11
181
21
87
0
LINE
5
424
100
AcDbEntity
8
Lichtgitter (Schaumstoff schwarz)
6
ByLayer
62
256
370
-1
100
AcDbLine
10
181
20
87
11
153
21
87
0
LINE
5
425
100
AcDbEntity
8
Lichtgitter (Schaumstoff schwarz)
6
ByLayer
62
256
370
-1
100
AcDbLine
10
153
20
87
11
153
21
115
0
LINE
5
426
100
AcDbEntity
8
Lichtgitter (Schaumstoff schwarz)
6
ByLayer
62
256
370
-1
100
AcDbLine
10
186
20
115
11
214
21
115
0
LINE
5
427
100
AcDbEntity
8
Lichtgitter (Schaumstoff schwarz)
6
ByLayer
62
256
370
-1
100
AcDbLine
10
214
20
115
11
214
21
87
0
LINE
5
428
100
AcDbEntity
8
Lichtgitter (Schaumstoff schwarz)
6
ByLayer
62
256
370
-1
100
AcDbLine
10
214
20
87
11
186
21
87
0
LINE
5
429
100
AcDbEntity
8
Lichtgitter (Schaumstoff schwarz)
6
ByLayer
62
256
370
-1
100
AcDbLine
10
186
20
87
11
186
21
115
0
LINE
5
42A
100
AcDbEntity
8
Lichtgitter (Schaumstoff schwarz)
6
ByLayer
62
256
370
-1
100
AcDbLine
10
219
20
115
11
247
21
115
0
LINE
5
42B
100
AcDbEntity
8
Lichtgitter (Schaumstoff schwarz)
6
ByLayer
62
256
370
-1
100
AcDbLine
10
247
20
115
11
247
21
87
0
LINE
5
42C
100
AcDbEntity
8
Lichtgitter (Schaumstoff schwarz)
6
ByLayer
62
256
370
-1
100
AcDbLine
10
247
20
87
11
219
21
87
0
LINE
5
42D
100
AcDbEntity
8
Lichtgitter (Schaumstoff schwarz)
6
ByLayer
62
256
370
-1
100
AcDbLine
10
219
20
87
11
219
21
115
0
LINE
5
42E
100
AcDbEntity
8
Lichtgitter (Schaumstoff schwarz)
6
ByLayer
62
256
370
-1
100
AcDbLine
10
252
20
115
11
280
21
115
0
LINE
5
42F
100
AcDbEntity
8
Lichtgitter (Schaumstoff schwarz)
6
ByLayer
62
256
370
-1
100
AcDbLine
10
280
20
115
11
280
21
87
0
LINE
5
430
100
AcDbEntity
8
Lichtgitter (Schaumstoff schwarz)
6
ByLayer
62
256
370
-1
100
AcDbLine
10
280
20
87
11
252
21
87
0
LINE
5
431
100
AcDbEntity
8
Lichtgitter (Schaumstoff schwarz)
6
ByLayer
62
256
370
-1
100
AcDbLine
10
252
20
87
11
252
21
115
0
LINE
5
432
100
AcDbEntity
8
Lichtgitter (Schaumstoff schwarz)
6
ByLayer
62
256
370
-1
100
AcDbLine
10
285
20
115
11
313
21
115
0
LINE
5
433
100
AcDbEntity
8
Lichtgitter (Schaumstoff schwarz)
6
ByLayer
62
256
370
-1
100
AcDbLine
10
313
20
115
11
313
21
87
0
LINE
5
434
100
AcDbEntity
8
Lichtgitter (Schaumstoff schwarz)
6
ByLayer
62
256
370
-1
100
AcDbLine
10
313
20
87
11
285
21
87
0
LINE
5
435
100
AcDbEntity
8
Lichtgitter (Schaumstoff schwarz)
6
ByLayer
62
256
370
-1
100
AcDbLine
10
285
20
87
11
285
21
115
0
LINE
5
436
100
AcDbEntity
8
Lichtgitter (Schaumstoff schwarz)
6
ByLayer
62
256
370
-1
100
AcDbLine
10
318
20
115
11
346
21
115
0
LINE
5
437
100
AcDbEntity
8
Lichtgitter (Schaumstoff schwarz)
6
ByLayer
62
256
370
-1
100
AcDbLine
10
346
20
115
11
346
21
87
0
LINE
5
438
100
AcDbEntity
8
Lichtgitter (Schaumstoff schwarz)
6
ByLayer
62
256
370
-1
100
AcDbLine
10
346
20
87
11
318
21
87
0
LINE
5
439
100
AcDbEntity
8
Lichtgitter (Schaumstoff schwarz)
6
ByLayer
62
256
370
-1
100
AcDbLine
10
318
20
87
11
318
21
115
0
LINE
5
43A
100
AcDbEntity
8
Lichtgitter (Schaumstoff schwarz)
6
ByLayer
62
256
370
-1
100
AcDbLine
10
351
20
115
11
379
21
115
0
LINE
5
43B
100
AcDbEntity
8
Lichtgitter (Schaumstoff schwarz)
6
ByLayer
62
256
370
-1
100
AcDbLine
10
379
20
115
11
379
21
87
0
LINE
5
43C
100
AcDbEntity
8
Lichtgitter (Schaumstoff schwarz)
6
ByLayer
62
256
370
-1
100
AcDbLine
10
379
20
87
11
351
21
87
0
LINE
5
43D
100
AcDbEntity
8
Lichtgitter (Schaumstoff schwarz)
6
ByLayer
62
256
370
-1
100
AcDbLine
10
351
20
87
11
351
21
115
0
LINE
5
43E
100
AcDbEntity
8
Lichtgitter (Schaumstoff schwarz)
6
ByLayer
62
256
370
-1
100
AcDbLine
10
21
20
82
11
49
21
82
0
LINE
5
43F
100
AcDbEntity
8
Lichtgitter (Schaumstoff schwarz)
6
ByLayer
62
256
370
-1
100
AcDbLine
10
49
20
82
11
49
21
54
0
LINE
5
440
100
AcDbEntity
8
Lichtgitter (Schaumstoff schwarz)
6
ByLayer
62
256
370
-1
100
AcDbLine
10
49
20
54
11
21
21
54
0
LINE
5
441
100
AcDbEntity
8
Lichtgitter (Schaumstoff schwarz)
6
ByLayer
62
256
370
-1
100
AcDbLine
10
21
20
54
11
21
21
82
0
LINE
5
442
100
AcDbEntity
8
Lichtgitter (Schaumstoff schwarz)
6
ByLayer
62
256
370
-1
100
AcDbLine
10
54
20
82
11
82
21
82
0
LINE
5
443
100
AcDbEntity
8
Lichtgitter (Schaumstoff schwarz)
6
ByLayer
62
256
370
-1
100
AcDbLine
10
82
20
82
11
82
21
54
0
LINE
5
444
100
AcDbEntity
8
Lichtgitter (Schaumstoff schwarz)
6
ByLayer
62
256
370
-1
100
AcDbLine
10
82
20
54
11
54
21
54
0
LINE
5
445
100
AcDbEntity
8
Lichtgitter (Schaumstoff schwarz)
6
ByLayer
62
256
370
-1
100
AcDbLine
10
54
20
54
11
54
21
82
0
LINE
5
446
100
AcDbEntity
8
Lichtgitter (Schaumstoff schwarz)
6
ByLayer
62
256
370
-1
100
AcDbLine
10
87
20
82
11
115
21
82
0
LINE
5
447
100
AcDbEntity
8
Lichtgitter (Schaumstoff schwarz)
6
ByLayer
62
256
370
-1
100
AcDbLine
10
115
20
82
11
115
21
54
0
LINE
5
448
100
AcDbEntity
8
Lichtgitter (Schaumstoff schwarz)
6
ByLayer
62
256
370
-1
100
AcDbLine
10
115
20
54
11
87
21
54
0
LINE
5
449
100
AcDbEntity
8
Lichtgitter (Schaumstoff schwarz)
6
ByLayer
62
256
370
-1
100
AcDbLine
10
87
20
54
11
87
21
82
0
LINE
5
44A
100
AcDbEntity
8
Lichtgitter (Schaumstoff schwarz)
6
ByLayer
62
256
370
-1
100
AcDbLine
10
120
20
82
11
148
21
82
0
LINE
5
44B
100
AcDbEntity
8
Lichtgitter (Schaumstoff schwarz)
6
ByLayer
62
256
370
-1
100
AcDbLine
10
148
20
82
11
148
21
54
0
LINE
5
44C
100
AcDbEntity
8
Lichtgitter (Schaumstoff schwarz)
6
ByLayer
62
256
370
-1
100
AcDbLine
10
148
20
54
11
120
21
54
0
LINE
5
44D
100
AcDbEntity
8
Lichtgitter (Schaumstoff schwarz)
6
ByLayer
62
256
370
-1
100
AcDbLine
10
120
20
54
11
120
21
82
0
LINE
5
44E
100
AcDbEntity
8
Lichtgitter (Schaumstoff schwarz)
6
ByLayer
62
256
370
-1
100
AcDbLine
10
153
20
82
11
181
21
82
0
LINE
5
44F
100
AcDbEntity
8
Lichtgitter (Schaumstoff schwarz)
6
ByLayer
62
256
370
-1
100
AcDbLine
10
181
20
82
11
181
21
54
0
LINE
5
450
100
AcDbEntity
8
Lichtgitter (Schaumstoff schwarz)
6
ByLayer
62
256
370
-1
100
AcDbLine
10
181
20
54
11
153
21
54
0
LINE
5
451
100
AcDbEntity
8
Lichtgitter (Schaumstoff schwarz)
6
ByLayer
62
256
370
-1
100
AcDbLine
10
153
20
54
11
153
21
82
0
LINE
5
452
100
AcDbEntity
8
Lichtgitter (Schaumstoff schwarz)
6
ByLayer
62
256
370
-1
100
AcDbLine
10
186
20
82
11
214
21
82
0
LINE
5
453
100
AcDbEntity
8
Lichtgitter (Schaumstoff schwarz)
6
ByLayer
62
256
370
-1
100
AcDbLine
10
214
20
82
11
214
21
54
0
LINE
5
454
100
AcDbEntity
8
Lichtgitter (Schaumstoff schwarz)
6
ByLayer
62
256
370
-1
100
AcDbLine
10
214
20
54
11
186
21
54
0
LINE
5
455
100
AcDbEntity
8
Lichtgitter (Schaumstoff schwarz)
6
ByLayer
62
256
370
-1
100
AcDbLine
10
186
20
54
11
186
21
82
0
LINE
5
456
100
AcDbEntity
8
Lichtgitter (Schaumstoff schwarz)
6
ByLayer
62
256
370
-1
100
AcDbLine
10
219
20
82
11
247
21
82
0
LINE
5
457
100
AcDbEntity
8
Lichtgitter (Schaumstoff schwarz)
6
ByLayer
62
256
370
-1
100
AcDbLine
10
247
20
82
11
247
21
54
0
LINE
5
458
100
AcDbEntity
8
Lichtgitter (Schaumstoff schwarz)
6
ByLayer
62
256
370
-1
100
AcDbLine
10
247
20
54
11
219
21
54
0
LINE
5
459
100
AcDbEntity
8
Lichtgitter (Schaumstoff schwarz)
6
ByLayer
62
256
370
-1
100
AcDbLine
10
219
20
54
11
219
21
82
0
LINE
5
45A
100
AcDbEntity
8
Lichtgitter (Schaumstoff schwarz)
6
ByLayer
62
256
370
-1
100
AcDbLine
10
252
20
82
11
280
21
82
0
LINE
5
45B
100
AcDbEntity
8
Lichtgitter (Schaumstoff schwarz)
6
ByLayer
62
256
370
-1
100
AcDbLine
10
280
20
82
11
280
21
54
0
LINE
5
45C
100
AcDbEntity
8
Lichtgitter (Schaumstoff schwarz)
6
ByLayer
62
256
370
-1
100
AcDbLine
10
280
20
54
11
252
21
54
0
LINE
5
45D
100
AcDbEntity
8
Lichtgitter (Schaumstoff schwarz)
6
ByLayer
62
256
370
-1
100
AcDbLine
10
252
20
54
11
252
21
82
0
LINE
5
45E
100
AcDbEntity
8
Lichtgitter (Schaumstoff schwarz)
6
ByLayer
62
256
370
-1
100
AcDbLine
10
285
20
82
11
313
21
82
0
LINE
5
45F
100
AcDbEntity
8
Lichtgitter (Schaumstoff schwarz)
6
ByLayer
62
256
370
-1
100
AcDbLine
10
313
20
82
11
313
21
54
0
LINE
5
460
100
AcDbEntity
8
Lichtgitter (Schaumstoff schwarz)
6
ByLayer
62
256
370
-1
100
AcDbLine
10
313
20
54
11
285
21
54
0
LINE
5
461
100
AcDbEntity
8
Lichtgitter (Schaumstoff schwarz)
6
ByLayer
62
256
370
-1
100
AcDbLine
10
285
20
54
11
285
21
82
0
LINE
5
462
100
AcDbEntity
8
Lichtgitter (Schaumstoff schwarz)
6
ByLayer
62
256
370
-1
100
AcDbLine
10
318
20
82
11
346
21
82
0
LINE
5
463
100
AcDbEntity
8
Lichtgitter (Schaumstoff schwarz)
6
ByLayer
62
256
370
-1
100
AcDbLine
10
346
20
82
11
346
21
54
0
LINE
5
464
100
AcDbEntity
8
Lichtgitter (Schaumstoff schwarz)
6
ByLayer
62
256
370
-1
100
AcDbLine
10
346
20
54
11
318
21
54
0
LINE
5
465
100
AcDbEntity
8
Lichtgitter (Schaumstoff schwarz)
6
ByLayer
62
256
370
-1
100
AcDbLine
10
318
20
54
11
318
21
82
0
LINE
5
466
100
AcDbEntity
8
Lichtgitter (Schaumstoff schwarz)
6
ByLayer
62
256
370
-1
100
AcDbLine
10
351
20
82
11
379
21
82
0
LINE
5
467
100
AcDbEntity
8
Lichtgitter (Schaumstoff schwarz)
6
ByLayer
62
256
370
-1
100
AcDbLine
10
379
20
82
11
379
21
54
0
LINE
5
468
100
AcDbEntity
8
Lichtgitter (Schaumstoff schwarz)
6
ByLayer
62
256
370
-1
100
AcDbLine
10
379
20
54
11
351
21
54
0
LINE
5
469
100
AcDbEntity
8
Lichtgitter (Schaumstoff schwarz)
6
ByLayer
62
256
370
-1
100
AcDbLine
10
351
20
54
11
351
21
82
0
LINE
5
46A
100
AcDbEntity
8
Lichtgitter (Schaumstoff schwarz)
6
ByLayer
62
256
370
-1
100
AcDbLine
10
136.5
20
49
11
164.5
21
49
0
LINE
5
46B
100
AcDbEntity
8
Lichtgitter (Schaumstoff schwarz)
6
ByLayer
62
256
370
-1
100
AcDbLine
10
164.5
20
49
11
164.5
21
21
0
LINE
5
46C
100
AcDbEntity
8
Lichtgitter (Schaumstoff schwarz)
6
ByLayer
62
256
370
-1
100
AcDbLine
10
164.5
20
21
11
136.5
21
21
0
LINE
5
46D
100
AcDbEntity
8
Lichtgitter (Schaumstoff schwarz)
6
ByLayer
62
256
370
-1
100
AcDbLine
10
136.5
20
21
11
136.5
21
49
0
LINE
5
46E
100
AcDbEntity
8
Lichtgitter (Schaumstoff schwarz)
6
ByLayer
62
256
370
-1
100
AcDbLine
10
169.5
20
49
11
197.5
21
49
0
LINE
5
46F
100
AcDbEntity
8
Lichtgitter (Schaumstoff schwarz)
6
ByLayer
62
256
370
-1
100
AcDbLine
10
197.5
20
49
11
197.5
21
21
0
LINE
5
470
100
AcDbEntity
8
Lichtgitter (Schaumstoff schwarz)
6
ByLayer
62
256
370
-1
100
AcDbLine
10
197.5
20
21
11
169.5
21
21
0
LINE
5
471
100
AcDbEntity
8
Lichtgitter (Schaumstoff schwarz)
6
ByLayer
62
256
370
-1
100
AcDbLine
10
169.5
20
21
11
169.5
21
49
0
LINE
5
472
100
AcDbEntity
8
Lichtgitter (Schaumstoff schwarz)
6
ByLayer
62
256
370
-1
100
AcDbLine
10
202.5
20
49
11
230.5
21
49
0
LINE
5
473
100
AcDbEntity
8
Lichtgitter (Schaumstoff schwarz)
6
ByLayer
62
256
370
-1
100
AcDbLine
10
230.5
20
49
11
230.5
21
21
0
LINE
5
474
100
AcDbEntity
8
Lichtgitter (Schaumstoff schwarz)
6
ByLayer
62
256
370
-1
100
AcDbLine
10
230.5
20
21
11
202.5
21
21
0
LINE
5
475
100
AcDbEntity
8
Lichtgitter (Schaumstoff schwarz)
6
ByLayer
62
256
370
-1
100
AcDbLine
10
202.5
20
21
11
202.5
21
49
0
LINE
5
476
100
AcDbEntity
8
Lichtgitter (Schaumstoff schwarz)
6
ByLayer
62
256
370
-1
100
AcDbLine
10
235.5
20
49
11
263.5
21
49
0
LINE
5
477
100
AcDbEntity
8
Lichtgitter (Schaumstoff schwarz)
6
ByLayer
62
256
370
-1
100
AcDbLine
10
263.5
20
49
11
263.5
21
21
0
LINE
5
478
100
AcDbEntity
8
Lichtgitter (Schaumstoff schwarz)
6
ByLayer
62
256
370
-1
100
AcDbLine
10
263.5
20
21
11
235.5
21
21
0
LINE
5
479
100
AcDbEntity
8
Lichtgitter (Schaumstoff schwarz)
6
ByLayer
62
256
370
-1
100
AcDbLine
10
235.5
20
21
11
235.5
21
49
0
MTEXT
5
47A
100
AcDbEntity
8
Buchstaben (Siebdruck Glas Stärke 2,4mm opak schwarz)
6
ByLayer
62
256
370
-1
100
AcDbMText
10
35
20
365
30
0
40
20
41
11.4666666667
71
5
72
1
1
E
7
wqy-unicode
210
0
220
0
230
1
50
0
73
2
44
1
0
MTEXT
5
47B
100
AcDbEntity
8
Buchstaben (Siebdruck Glas Stärke 2,4mm opak schwarz)
6
ByLayer
62
256
370
-1
100
AcDbMText
10
68
20
365
30
0
40
20
41
12.8888888889
71
5
72
1
1
S
7
wqy-unicode
210
0
220
0
230
1
50
0
73
2
44
1
0
MTEXT
5
47C
100
AcDbEntity
8
Buchstaben (Siebdruck Glas Stärke 2,4mm opak schwarz)
6
ByLayer
62
256
370
-1
100
AcDbMText
10
101
20
365
30
0
40
20
41
13.6666666667
71
5
72
1
1
M
7
wqy-unicode
210
0
220
0
230
1
50
0
73
2
44
1
0
MTEXT
5
47D
100
AcDbEntity
8
Buchstaben (Siebdruck Glas Stärke 2,4mm opak schwarz)
6
ByLayer
62
256
370
-1
100
AcDbMText
10
134
20
365
30
0
40
20
41
10.5777777778
71
5
72
1
1
I
7
wqy-unicode
210
0
220
0
230
1
50
0
73
2
44
1
0
MTEXT
5
47E
100
AcDbEntity
8
Buchstaben (Siebdruck Glas Stärke 2,4mm opak schwarz)
6
ByLayer
62
256
370
-1
100
AcDbMText
10
167
20
365
30
0
40
20
41
12.8888888889
71
5
72
1
1
S
7
wqy-unicode
210
0
220
0
230
1
50
0
73
2
44
1
0
MTEXT
5
47F
100
AcDbEntity
8
Buchstaben (Siebdruck Glas Stärke 2,4mm opak schwarz)
6
ByLayer
62
256
370
-1
100
AcDbMText
10
200
20
365
30
0
40
20
41
13.9333333333
71
5
72
1
1
T
7
wqy-unicode
210
0
220
0
230
1
50
0
73
2
44
1
0
MTEXT
5
480
100
AcDbEntity
8
Buchstaben (Siebdruck Glas Stärke 2,4mm opak schwarz)
6
ByLayer
62
256
370
-1
100
AcDbMText
10
233
20
365
30
0
40
20
41
12.5111111111
71
5
72
1
1
P
7
wqy-unicode
210
0
220
0
230
1
50
0
73
2
44
1
0
MTEXT
5
481
100
AcDbEntity
8
Buchstaben (Siebdruck Glas Stärke 2,4mm opak schwarz)
6
ByLayer
62
256
370
-1
100
AcDbMText
10
266
20
365
30
0
40
20
41
12.8888888889
71
5
72
1
1
S
7
wqy-unicode
210
0
220
0
230
1
50
0
73
2
44
1
0
MTEXT
5
482
100
AcDbEntity
8
Buchstaben (Siebdruck Glas Stärke 2,4mm opak schwarz)
6
ByLayer
62
256
370
-1
100
AcDbMText
10
299
20
365
30
0
40
20
41
15.8444444444
71
5
72
1
1
A
7
wqy-unicode
210
0
220
0
230
1
50
0
73
2
44
1
0
MTEXT
5
483
100
AcDbEntity
8
Buchstaben (Siebdruck Glas Stärke 2,4mm opak schwarz)
6
ByLayer
62
256
370
-1
100
AcDbMText
10
332
20
365
30
0
40
20
41
11.2
71
5
72
1
1
L
7
wqy-unicode
210
0
220
0
230
1
50
0
73
2
44
1
0
MTEXT
5
484
100
AcDbEntity
8
Buchstaben (Siebdruck Glas Stärke 2,4mm opak schwarz)
6
ByLayer
62
256
370
-1
100
AcDbMText
10
365
20
365
30
0
40
20
41
13.6666666667
71
5
72
1
1
M
7
wqy-unicode
210
0
220
0
230
1
50
0
73
2
44
1
0
MTEXT
5
485
100
AcDbEntity
8
Buchstaben (Siebdruck Glas Stärke 2,4mm opak schwarz)
6
ByLayer
62
256
370
-1
100
AcDbMText
10
35
20
332
30
0
40
20
41
11.4666666667
71
5
72
1
1
F
7
wqy-unicode
210
0
220
0
230
1
50
0
73
2
44
1
0
MTEXT
5
486
100
AcDbEntity
8
Buchstaben (Siebdruck Glas Stärke 2,4mm opak schwarz)
6
ByLayer
62
256
370
-1
100
AcDbMText
10
101
20
332
30
0
40
20
41
13.0444444444
71
5
72
1
1
N
7
wqy-unicode
210
0
220
0
230
1
50
0
73
2
44
1
0
MTEXT
5
487
100
AcDbEntity
8
Buchstaben (Siebdruck Glas Stärke 2,4mm opak schwarz)
6
ByLayer
62
256
370
-1
100
AcDbMText
10
134
20
332
30
0
40
20
41
11.4666666667
71
5
72
1
1
F
7
wqy-unicode
210
0
220
0
230
1
50
0
73
2
44
1
0
MTEXT
5
488
100
AcDbEntity
8
Buchstaben (Siebdruck Glas Stärke 2,4mm opak schwarz)
6
ByLayer
62
256
370
-1
100
AcDbMText
10
167
20
332
30
0
40
20
41
14.3111111111
71
5
72
1
1
C
7
wqy-unicode
210
0
220
0
230
1
50
0
73
2
44
1
0
MTEXT
5
489
100
AcDbEntity
8
Buchstaben (Siebdruck Glas Stärke 2,4mm opak schwarz)
6
ByLayer
62
256
370
-1
100
AcDbMText
10
233
20
332
30
0
40
20
41
13.9333333333
71
5
72
1
1
Z
7
wqy-unicode
210
0
220
0
230
1
50
0
73
2
44
1
0
MTEXT
5
48A
100
AcDbEntity
8
Buchstaben (Siebdruck Glas Stärke 2,4mm opak schwarz)
6
ByLayer
62
256
370
-1
100
AcDbMText
10
266
20
332
30
0
40
20
41
11.4666666667
71
5
72
1
1
E
7
wqy-unicode
210
0
220
0
230
1
50
0
73
2
44
1
0
MTEXT
5
48B
100
AcDbEntity
8
Buchstaben (Siebdruck Glas Stärke 2,4mm opak schwarz)
6
ByLayer
62
256
370
-1
100
AcDbMText
10
299
20
332
30
0
40
20
41
13.0666666667
71
5
72
1
1
H
7
wqy-unicode
210
0
220
0
230
1
50
0
73
2
44
1
0
MTEXT
5
48C
100
AcDbEntity
8
Buchstaben (Siebdruck Glas Stärke 2,4mm opak schwarz)
6
ByLayer
62
256
370
-1
100
AcDbMText
10
332
20
332
30
0
40
20
41
13.0444444444
71
5
72
1
1
N
7
wqy-unicode
210
0
220
0
230
1
50
0
73
2
44
1
0
MTEXT
5
48D
100
AcDbEntity
8
Buchstaben (Siebdruck Glas Stärke 2,4mm opak schwarz)
6
ByLayer
62
256
370
-1
100
AcDbMText
10
365
20
332
30
0
40
20
41
13.9333333333
71
5
72
1
1
T
7
wqy-unicode
210
0
220
0
230
1
50
0
73
2
44
1
0
MTEXT
5
48E
100
AcDbEntity
8
Buchstaben (Siebdruck Glas Stärke 2,4mm opak schwarz)
6
ByLayer
62
256
370
-1
100
AcDbMText
10
35
20
299
30
0
40
20
41
11.4666666667
71
5
72
1
1
J
7
wqy-unicode
210
0
220
0
230
1
50
0
73
2
44
1
0
MTEXT
5
48F
100
AcDbEntity
8
Buchstaben (Siebdruck Glas Stärke 2,4mm opak schwarz)
6
ByLayer
62
256
370
-1
100
AcDbMText
10
68
20
299
30
0
40
20
41
11.4666666667
71
5
72
1
1
E
7
wqy-unicode
210
0
220
0
230
1
50
0
73
2
44
1
0
MTEXT
5
490
100
AcDbEntity
8
Buchstaben (Siebdruck Glas Stärke 2,4mm opak schwarz)
6
ByLayer
62
256
370
-1
100
AcDbMText
10
101
20
299
30
0
40
20
41
12.8888888889
71
5
72
1
1
S
7
wqy-unicode
210
0
220
0
230
1
50
0
73
2
44
1
0
MTEXT
5
491
100
AcDbEntity
8
Buchstaben (Siebdruck Glas Stärke 2,4mm opak schwarz)
6
ByLayer
62
256
370
-1
100
AcDbMText
10
167
20
299
30
0
40
20
41
12.8888888889
71
5
72
1
1
S
7
wqy-unicode
210
0
220
0
230
1
50
0
73
2
44
1
0
MTEXT
5
492
100
AcDbEntity
8
Buchstaben (Siebdruck Glas Stärke 2,4mm opak schwarz)
6
ByLayer
62
256
370
-1
100
AcDbMText
10
134
20
299
30
0
40
20
41
13.3333333333
71
5
72
1
1
U
7
wqy-unicode
210
0
220
0
230
1
50
0
73
2
44
1
0
MTEXT
5
493
100
AcDbEntity
8
Buchstaben (Siebdruck Glas Stärke 2,4mm opak schwarz)
6
ByLayer
62
256
370
-1
100
AcDbMText
10
200
20
299
30
0
40
20
41
13.0666666667
71
5
72
1
1
H
7
wqy-unicode
210
0
220
0
230
1
50
0
73
2
44
1
0
MTEXT
5
494
100
AcDbEntity
8
Buchstaben (Siebdruck Glas Stärke 2,4mm opak schwarz)
6
ByLayer
62
256
370
-1
100
AcDbMText
10
233
20
299
30
0
40
20
41
15.8444444444
71
5
72
1
1
A
7
wqy-unicode
210
0
220
0
230
1
50
0
73
2
44
1
0
MTEXT
5
495
100
AcDbEntity
8
Buchstaben (Siebdruck Glas Stärke 2,4mm opak schwarz)
6
ByLayer
62
256
370
-1
100
AcDbMText
10
266
20
299
30
0
40
20
41
11.2
71
5
72
1
1
L
7
wqy-unicode
210
0
220
0
230
1
50
0
73
2
44
1
0
MTEXT
5
496
100
AcDbEntity
8
Buchstaben (Siebdruck Glas Stärke 2,4mm opak schwarz)
6
ByLayer
62
256
370
-1
100
AcDbMText
10
299
20
299
30
0
40
20
41
13.6444444444
71
5
72
1
1
B
7
wqy-unicode
210
0
220
0
230
1
50
0
73
2
44
1
0
MTEXT
5
497
100
AcDbEntity
8
Buchstaben (Siebdruck Glas Stärke 2,4mm opak schwarz)
6
ByLayer
62
256
370
-1
100
AcDbMText
10
332
20
299
30
0
40
20
41
13.7777777778
71
5
72
1
1
D
7
wqy-unicode
210
0
220
0
230
1
50
0
73
2
44
1
0
MTEXT
5
498
100
AcDbEntity
8
Buchstaben (Siebdruck Glas Stärke 2,4mm opak schwarz)
6
ByLayer
62
256
370
-1
100
AcDbMText
10
365
20
299
30
0
40
20
41
13.3333333333
71
5
72
1
1
U
7
wqy-unicode
210
0
220
0
230
1
50
0
73
2
44
1
0
MTEXT
5
499
100
AcDbEntity
8
Buchstaben (Siebdruck Glas Stärke 2,4mm opak schwarz)
6
ByLayer
62
256
370
-1
100
AcDbMText
10
68
20
266
30
0
40
20
41
13.9333333333
71
5
72
1
1
T
7
wqy-unicode
210
0
220
0
230
1
50
0
73
2
44
1
0
MTEXT
5
49A
100
AcDbEntity
8
Buchstaben (Siebdruck Glas Stärke 2,4mm opak schwarz)
6
ByLayer
62
256
370
-1
100
AcDbMText
10
101
20
266
30
0
40
20
41
15.8444444444
71
5
72
1
1
V
7
wqy-unicode
210
0
220
0
230
1
50
0
73
2
44
1
0
MTEXT
5
49B
100
AcDbEntity
8
Buchstaben (Siebdruck Glas Stärke 2,4mm opak schwarz)
6
ByLayer
62
256
370
-1
100
AcDbMText
10
134
20
266
30
0
40
20
41
10.5777777778
71
5
72
1
1
I
7
wqy-unicode
210
0
220
0
230
1
50
0
73
2
44
1
0
MTEXT
5
49C
100
AcDbEntity
8
Buchstaben (Siebdruck Glas Stärke 2,4mm opak schwarz)
6
ByLayer
62
256
370
-1
100
AcDbMText
10
167
20
266
30
0
40
20
41
11.4666666667
71
5
72
1
1
E
7
wqy-unicode
210
0
220
0
230
1
50
0
73
2
44
1
0
MTEXT
5
49D
100
AcDbEntity
8
Buchstaben (Siebdruck Glas Stärke 2,4mm opak schwarz)
6
ByLayer
62
256
370
-1
100
AcDbMText
10
200
20
266
30
0
40
20
41
13.4222222222
71
5
72
1
1
R
7
wqy-unicode
210
0
220
0
230
1
50
0
73
2
44
1
0
MTEXT
5
49E
100
AcDbEntity
8
Buchstaben (Siebdruck Glas Stärke 2,4mm opak schwarz)
6
ByLayer
62
256
370
-1
100
AcDbMText
10
233
20
266
30
0
40
20
41
13.9333333333
71
5
72
1
1
T
7
wqy-unicode
210
0
220
0
230
1
50
0
73
2
44
1
0
MTEXT
5
49F
100
AcDbEntity
8
Buchstaben (Siebdruck Glas Stärke 2,4mm opak schwarz)
6
ByLayer
62
256
370
-1
100
AcDbMText
10
266
20
266
30
0
40
20
41
11.4666666667
71
5
72
1
1
E
7
wqy-unicode
210
0
220
0
230
1
50
0
73
2
44
1
0
MTEXT
5
4A0
100
AcDbEntity
8
Buchstaben (Siebdruck Glas Stärke 2,4mm opak schwarz)
6
ByLayer
62
256
370
-1
100
AcDbMText
10
299
20
266
30
0
40
20
41
11.2
71
5
72
1
1
L
7
wqy-unicode
210
0
220
0
230
1
50
0
73
2
44
1
0
MTEXT
5
4A1
100
AcDbEntity
8
Buchstaben (Siebdruck Glas Stärke 2,4mm opak schwarz)
6
ByLayer
62
256
370
-1
100
AcDbMText
10
332
20
266
30
0
40
20
41
13.4222222222
71
5
72
1
1
R
7
wqy-unicode
210
0
220
0
230
1
50
0
73
2
44
1
0
MTEXT
5
4A2
100
AcDbEntity
8
Buchstaben (Siebdruck Glas Stärke 2,4mm opak schwarz)
6
ByLayer
62
256
370
-1
100
AcDbMText
10
101
20
233
30
0
40
20
41
15.8444444444
71
5
72
1
1
A
7
wqy-unicode
210
0
220
0
230
1
50
0
73
2
44
1
0
MTEXT
5
4A3
100
AcDbEntity
8
Buchstaben (Siebdruck Glas Stärke 2,4mm opak schwarz)
6
ByLayer
62
256
370
-1
100
AcDbMText
10
167
20
233
30
0
40
20
41
15.8444444444
71
5
72
1
1
V
7
wqy-unicode
210
0
220
0
230
1
50
0
73
2
44
1
0
MTEXT
5
4A4
100
AcDbEntity
8
Buchstaben (Siebdruck Glas Stärke 2,4mm opak schwarz)
6
ByLayer
62
256
370
-1
100
AcDbMText
10
200
20
233
30
0
40
20
41
14.4888888889
71
5
72
1
1
O
7
wqy-unicode
210
0
220
0
230
1
50
0
73
2
44
1
0
MTEXT
5
4A5
100
AcDbEntity
8
Buchstaben (Siebdruck Glas Stärke 2,4mm opak schwarz)
6
ByLayer
62
256
370
-1
100
AcDbMText
10
233
20
233
30
0
40
20
41
13.4222222222
71
5
72
1
1
R
7
wqy-unicode
210
0
220
0
230
1
50
0
73
2
44
1
0
MTEXT
5
4A6
100
AcDbEntity
8
Buchstaben (Siebdruck Glas Stärke 2,4mm opak schwarz)
6
ByLayer
62
256
370
-1
100
AcDbMText
10
266
20
233
30
0
40
20
41
13.0444444444
71
5
72
1
1
N
7
wqy-unicode
210
0
220
0
230
1
50
0
73
2
44
1
0
MTEXT
5
4A7
100
AcDbEntity
8
Buchstaben (Siebdruck Glas Stärke 2,4mm opak schwarz)
6
ByLayer
62
256
370
-1
100
AcDbMText
10
299
20
233
30
0
40
20
41
15.8444444444
71
5
72
1
1
A
7
wqy-unicode
210
0
220
0
230
1
50
0
73
2
44
1
0
MTEXT
5
4A8
100
AcDbEntity
8
Buchstaben (Siebdruck Glas Stärke 2,4mm opak schwarz)
6
ByLayer
62
256
370
-1
100
AcDbMText
10
332
20
233
30
0
40
20
41
14.3111111111
71
5
72
1
1
C
7
wqy-unicode
210
0
220
0
230
1
50
0
73
2
44
1
0
MTEXT
5
4A9
100
AcDbEntity
8
Buchstaben (Siebdruck Glas Stärke 2,4mm opak schwarz)
6
ByLayer
62
256
370
-1
100
AcDbMText
10
365
20
233
30
0
40
20
41
13.0666666667
71
5
72
1
1
H
7
wqy-unicode
210
0
220
0
230
1
50
0
73
2
44
1
0
MTEXT
5
4AA
100
AcDbEntity
8
Buchstaben (Siebdruck Glas Stärke 2,4mm opak schwarz)
6
ByLayer
62
256
370
-1
100
AcDbMText
10
35
20
200
30
0
40
20
41
15.8444444444
71
5
72
1
1
V
7
wqy-unicode
210
0
220
0
230
1
50
0
73
2
44
1
0
MTEXT
5
4AB
100
AcDbEntity
8
Buchstaben (Siebdruck Glas Stärke 2,4mm opak schwarz)
6
ByLayer
62
256
370
-1
100
AcDbMText
10
68
20
200
30
0
40
20
41
10.5777777778
71
5
72
1
1
I
7
wqy-unicode
210
0
220
0
230
1
50
0
73
2
44
1
0
MTEXT
5
4AC
100
AcDbEntity
8
Buchstaben (Siebdruck Glas Stärke 2,4mm opak schwarz)
6
ByLayer
62
256
370
-1
100
AcDbMText
10
101
20
200
30
0
40
20
41
11.4666666667
71
5
72
1
1
E
7
wqy-unicode
210
0
220
0
230
1
50
0
73
2
44
1
0
MTEXT
5
4AD
100
AcDbEntity
8
Buchstaben (Siebdruck Glas Stärke 2,4mm opak schwarz)
6
ByLayer
62
256
370
-1
100
AcDbMText
10
134
20
200
30
0
40
20
41
13.4222222222
71
5
72
1
1
R
7
wqy-unicode
210
0
220
0
230
1
50
0
73
2
44
1
0
MTEXT
5
4AE
100
AcDbEntity
8
Buchstaben (Siebdruck Glas Stärke 2,4mm opak schwarz)
6
ByLayer
62
256
370
-1
100
AcDbMText
10
233
20
200
30
0
40
20
41
15.8444444444
71
5
72
1
1
A
7
wqy-unicode
210
0
220
0
230
1
50
0
73
2
44
1
0
MTEXT
5
4AF
100
AcDbEntity
8
Buchstaben (Siebdruck Glas Stärke 2,4mm opak schwarz)
6
ByLayer
62
256
370
-1
100
AcDbMText
10
266
20
200
30
0
40
20
41
14.3111111111
71
5
72
1
1
C
7
wqy-unicode
210
0
220
0
230
1
50
0
73
2
44
1
0
MTEXT
5
4B0
100
AcDbEntity
8
Buchstaben (Siebdruck Glas Stärke 2,4mm opak schwarz)
6
ByLayer
62
256
370
-1
100
AcDbMText
10
299
20
200
30
0
40
20
41
13.0666666667
71
5
72
1
1
H
7
wqy-unicode
210
0
220
0
230
1
50
0
73
2
44
1
0
MTEXT
5
4B1
100
AcDbEntity
8
Buchstaben (Siebdruck Glas Stärke 2,4mm opak schwarz)
6
ByLayer
62
256
370
-1
100
AcDbMText
10
332
20
200
30
0
40
20
41
13.9333333333
71
5
72
1
1
T
7
wqy-unicode
210
0
220
0
230
1
50
0
73
2
44
1
0
MTEXT
5
4B2
100
AcDbEntity
8
Buchstaben (Siebdruck Glas Stärke 2,4mm opak schwarz)
6
ByLayer
62
256
370
-1
100
AcDbMText
10
365
20
200
30
0
40
20
41
10.5777777778
71
5
72
1
1
I
7
wqy-unicode
210
0
220
0
230
1
50
0
73
2
44
1
0
MTEXT
5
4B3
100
AcDbEntity
8
Buchstaben (Siebdruck Glas Stärke 2,4mm opak schwarz)
6
ByLayer
62
256
370
-1
100
AcDbMText
10
200
20
200
30
0
40
20
41
13.0444444444
71
5
72
1
1
N
7
wqy-unicode
210
0
220
0
230
1
50
0
73
2
44
1
0
MTEXT
5
4B4
100
AcDbEntity
8
Buchstaben (Siebdruck Glas Stärke 2,4mm opak schwarz)
6
ByLayer
62
256
370
-1
100
AcDbMText
10
68
20
167
30
0
40
20
41
13.9333333333
71
5
72
1
1
Z
7
wqy-unicode
210
0
220
0
230
1
50
0
73
2
44
1
0
MTEXT
5
4B5
100
AcDbEntity
8
Buchstaben (Siebdruck Glas Stärke 2,4mm opak schwarz)
6
ByLayer
62
256
370
-1
100
AcDbMText
10
101
20
167
30
0
40
20
41
16.6888888889
71
5
72
1
1
W
7
wqy-unicode
210
0
220
0
230
1
50
0
73
2
44
1
0
MTEXT
5
4B6
100
AcDbEntity
8
Buchstaben (Siebdruck Glas Stärke 2,4mm opak schwarz)
6
ByLayer
62
256
370
-1
100
AcDbMText
10
134
20
167
30
0
40
20
41
11.4666666667
71
5
72
1
1
E
7
wqy-unicode
210
0
220
0
230
1
50
0
73
2
44
1
0
MTEXT
5
4B7
100
AcDbEntity
8
Buchstaben (Siebdruck Glas Stärke 2,4mm opak schwarz)
6
ByLayer
62
256
370
-1
100
AcDbMText
10
167
20
167
30
0
40
20
41
10.5777777778
71
5
72
1
1
I
7
wqy-unicode
210
0
220
0
230
1
50
0
73
2
44
1
0
MTEXT
5
4B8
100
AcDbEntity
8
Buchstaben (Siebdruck Glas Stärke 2,4mm opak schwarz)
6
ByLayer
62
256
370
-1
100
AcDbMText
10
200
20
167
30
0
40
20
41
14.3111111111
71
5
72
1
1
C
7
wqy-unicode
210
0
220
0
230
1
50
0
73
2
44
1
0
MTEXT
5
4B9
100
AcDbEntity
8
Buchstaben (Siebdruck Glas Stärke 2,4mm opak schwarz)
6
ByLayer
62
256
370
-1
100
AcDbMText
10
233
20
167
30
0
40
20
41
13.0666666667
71
5
72
1
1
H
7
wqy-unicode
210
0
220
0
230
1
50
0
73
2
44
1
0
MTEXT
5
4BA
100
AcDbEntity
8
Buchstaben (Siebdruck Glas Stärke 2,4mm opak schwarz)
6
ByLayer
62
256
370
-1
100
AcDbMText
10
266
20
167
30
0
40
20
41
13.9333333333
71
5
72
1
1
Z
7
wqy-unicode
210
0
220
0
230
1
50
0
73
2
44
1
0
MTEXT
5
4BB
100
AcDbEntity
8
Buchstaben (Siebdruck Glas Stärke 2,4mm opak schwarz)
6
ByLayer
62
256
370
-1
100
AcDbMText
10
299
20
167
30
0
40
20
41
11.4666666667
71
5
72
1
1
E
7
wqy-unicode
210
0
220
0
230
1
50
0
73
2
44
1
0
MTEXT
5
4BC
100
AcDbEntity
8
Buchstaben (Siebdruck Glas Stärke 2,4mm opak schwarz)
6
ByLayer
62
256
370
-1
100
AcDbMText
10
332
20
167
30
0
40
20
41
13.0666666667
71
5
72
1
1
H
7
wqy-unicode
210
0
220
0
230
1
50
0
73
2
44
1
0
MTEXT
5
4BD
100
AcDbEntity
8
Buchstaben (Siebdruck Glas Stärke 2,4mm opak schwarz)
6
ByLayer
62
256
370
-1
100
AcDbMText
10
365
20
167
30
0
40
20
41
13.0444444444
71
5
72
1
1
N
7
wqy-unicode
210
0
220
0
230
1
50
0
73
2
44
1
0
MTEXT
5
4BE
100
AcDbEntity
8
Buchstaben (Siebdruck Glas Stärke 2,4mm opak schwarz)
6
ByLayer
62
256
370
-1
100
AcDbMText
10
68
20
134
30
0
40
20
41
12.8888888889
71
5
72
1
1
S
7
wqy-unicode
210
0
220
0
230
1
50
0
73
2
44
1
0
MTEXT
5
4BF
100
AcDbEntity
8
Buchstaben (Siebdruck Glas Stärke 2,4mm opak schwarz)
6
ByLayer
62
256
370
-1
100
AcDbMText
10
101
20
134
30
0
40
20
41
10.5777777778
71
5
72
1
1
I
7
wqy-unicode
210
0
220
0
230
1
50
0
73
2
44
1
0
MTEXT
5
4C0
100
AcDbEntity
8
Buchstaben (Siebdruck Glas Stärke 2,4mm opak schwarz)
6
ByLayer
62
256
370
-1
100
AcDbMText
10
134
20
134
30
0
40
20
41
11.4666666667
71
5
72
1
1
E
7
wqy-unicode
210
0
220
0
230
1
50
0
73
2
44
1
0
MTEXT
5
4C1
100
AcDbEntity
8
Buchstaben (Siebdruck Glas Stärke 2,4mm opak schwarz)
6
ByLayer
62
256
370
-1
100
AcDbMText
10
167
20
134
30
0
40
20
41
13.6444444444
71
5
72
1
1
B
7
wqy-unicode
210
0
220
0
230
1
50
0
73
2
44
1
0
MTEXT
5
4C2
100
AcDbEntity
8
Buchstaben (Siebdruck Glas Stärke 2,4mm opak schwarz)
6
ByLayer
62
256
370
-1
100
AcDbMText
10
200
20
134
30
0
40
20
41
11.4666666667
71
5
72
1
1
E
7
wqy-unicode
210
0
220
0
230
1
50
0
73
2
44
1
0
MTEXT
5
4C3
100
AcDbEntity
8
Buchstaben (Siebdruck Glas Stärke 2,4mm opak schwarz)
6
ByLayer
62
256
370
-1
100
AcDbMText
10
233
20
134
30
0
40
20
41
13.0444444444
71
5
72
1
1
N
7
wqy-unicode
210
0
220
0
230
1
50
0
73
2
44
1
0
MTEXT
5
4C4
100
AcDbEntity
8
Buchstaben (Siebdruck Glas Stärke 2,4mm opak schwarz)
6
ByLayer
62
256
370
-1
100
AcDbMText
10
332
20
134
30
0
40
20
41
13.0444444444
71
5
72
1
1
N
7
wqy-unicode
210
0
220
0
230
1
50
0
73
2
44
1
0
MTEXT
5
4C5
100
AcDbEntity
8
Buchstaben (Siebdruck Glas Stärke 2,4mm opak schwarz)
6
ByLayer
62
256
370
-1
100
AcDbMText
10
266
20
134
30
0
40
20
41
11.4666666667
71
5
72
1
1
E
7
wqy-unicode
210
0
220
0
230
1
50
0
73
2
44
1
0
MTEXT
5
4C6
100
AcDbEntity
8
Buchstaben (Siebdruck Glas Stärke 2,4mm opak schwarz)
6
ByLayer
62
256
370
-1
100
AcDbMText
10
299
20
134
30
0
40
20
41
13.3333333333
71
5
72
1
1
U
7
wqy-unicode
210
0
220
0
230
1
50
0
73
2
44
1
0
MTEXT
5
4C7
100
AcDbEntity
8
Buchstaben (Siebdruck Glas Stärke 2,4mm opak schwarz)
6
ByLayer
62
256
370
-1
100
AcDbMText
10
35
20
101
30
0
40
20
41
13.7777777778
71
5
72
1
1
D
7
wqy-unicode
210
0
220
0
230
1
50
0
73
2
44
1
0
MTEXT
5
4C8
100
AcDbEntity
8
Buchstaben (Siebdruck Glas Stärke 2,4mm opak schwarz)
6
ByLayer
62
256
370
-1
100
AcDbMText
10
68
20
101
30
0
40
20
41
13.4222222222
71
5
72
1
1
R
7
wqy-unicode
210
0
220
0
230
1
50
0
73
2
44
1
0
MTEXT
5
4C9
100
AcDbEntity
8
Buchstaben (Siebdruck Glas Stärke 2,4mm opak schwarz)
6
ByLayer
62
256
370
-1
100
AcDbMText
10
101
20
101
30
0
40
20
41
11.4666666667
71
5
72
1
1
E
7
wqy-unicode
210
0
220
0
230
1
50
0
73
2
44
1
0
MTEXT
5
4CA
100
AcDbEntity
8
Buchstaben (Siebdruck Glas Stärke 2,4mm opak schwarz)
6
ByLayer
62
256
370
-1
100
AcDbMText
10
134
20
101
30
0
40
20
41
10.5777777778
71
5
72
1
1
I
7
wqy-unicode
210
0
220
0
230
1
50
0
73
2
44
1
0
MTEXT
5
4CB
100
AcDbEntity
8
Buchstaben (Siebdruck Glas Stärke 2,4mm opak schwarz)
6
ByLayer
62
256
370
-1
100
AcDbMText
10
167
20
101
30
0
40
20
41
13.0444444444
71
5
72
1
1
N
7
wqy-unicode
210
0
220
0
230
1
50
0
73
2
44
1
0
MTEXT
5
4CC
100
AcDbEntity
8
Buchstaben (Siebdruck Glas Stärke 2,4mm opak schwarz)
6
ByLayer
62
256
370
-1
100
AcDbMText
10
200
20
101
30
0
40
20
41
12.8888888889
71
5
72
1
1
S
7
wqy-unicode
210
0
220
0
230
1
50
0
73
2
44
1
0
MTEXT
5
4CD
100
AcDbEntity
8
Buchstaben (Siebdruck Glas Stärke 2,4mm opak schwarz)
6
ByLayer
62
256
370
-1
100
AcDbMText
10
233
20
101
30
0
40
20
41
11.4666666667
71
5
72
1
1
E
7
wqy-unicode
210
0
220
0
230
1
50
0
73
2
44
1
0
MTEXT
5
4CE
100
AcDbEntity
8
Buchstaben (Siebdruck Glas Stärke 2,4mm opak schwarz)
6
ByLayer
62
256
370
-1
100
AcDbMText
10
266
20
101
30
0
40
20
41
14.3111111111
71
5
72
1
1
C
7
wqy-unicode
210
0
220
0
230
1
50
0
73
2
44
1
0
MTEXT
5
4CF
100
AcDbEntity
8
Buchstaben (Siebdruck Glas Stärke 2,4mm opak schwarz)
6
ByLayer
62
256
370
-1
100
AcDbMText
10
299
20
101
30
0
40
20
41
13.0666666667
71
5
72
1
1
H
7
wqy-unicode
210
0
220
0
230
1
50
0
73
2
44
1
0
MTEXT
5
4D0
100
AcDbEntity
8
Buchstaben (Siebdruck Glas Stärke 2,4mm opak schwarz)
6
ByLayer
62
256
370
-1
100
AcDbMText
10
332
20
101
30
0
40
20
41
12.8888888889
71
5
72
1
1
S
7
wqy-unicode
210
0
220
0
230
1
50
0
73
2
44
1
0
MTEXT
5
4D1
100
AcDbEntity
8
Buchstaben (Siebdruck Glas Stärke 2,4mm opak schwarz)
6
ByLayer
62
256
370
-1
100
AcDbMText
10
35
20
68
30
0
40
20
41
13.9333333333
71
5
72
1
1
Z
7
wqy-unicode
210
0
220
0
230
1
50
0
73
2
44
1
0
MTEXT
5
4D2
100
AcDbEntity
8
Buchstaben (Siebdruck Glas Stärke 2,4mm opak schwarz)
6
ByLayer
62
256
370
-1
100
AcDbMText
10
68
20
68
30
0
40
20
41
16.6888888889
71
5
72
1
1
W
7
wqy-unicode
210
0
220
0
230
1
50
0
73
2
44
1
0
MTEXT
5
4D3
100
AcDbEntity
8
Buchstaben (Siebdruck Glas Stärke 2,4mm opak schwarz)
6
ByLayer
62
256
370
-1
100
AcDbMText
10
134
20
68
30
0
40
20
41
11.2
71
5
72
1
1
L
7
wqy-unicode
210
0
220
0
230
1
50
0
73
2
44
1
0
MTEXT
5
4D4
100
AcDbEntity
8
Buchstaben (Siebdruck Glas Stärke 2,4mm opak schwarz)
6
ByLayer
62
256
370
-1
100
AcDbMText
10
167
20
68
30
0
40
20
41
11.4666666667
71
5
72
1
1
F
7
wqy-unicode
210
0
220
0
230
1
50
0
73
2
44
1
0
MTEXT
5
4D5
100
AcDbEntity
8
Buchstaben (Siebdruck Glas Stärke 2,4mm opak schwarz)
6
ByLayer
62
256
370
-1
100
AcDbMText
10
233
20
68
30
0
40
20
41
13.0444444444
71
5
72
1
1
N
7
wqy-unicode
210
0
220
0
230
1
50
0
73
2
44
1
0
MTEXT
5
4D6
100
AcDbEntity
8
Buchstaben (Siebdruck Glas Stärke 2,4mm opak schwarz)
6
ByLayer
62
256
370
-1
100
AcDbMText
10
266
20
68
30
0
40
20
41
11.4666666667
71
5
72
1
1
F
7
wqy-unicode
210
0
220
0
230
1
50
0
73
2
44
1
0
MTEXT
5
4D7
100
AcDbEntity
8
Buchstaben (Siebdruck Glas Stärke 2,4mm opak schwarz)
6
ByLayer
62
256
370
-1
100
AcDbMText
10
299
20
68
30
0
40
20
41
11.4666666667
71
5
72
1
1
E
7
wqy-unicode
210
0
220
0
230
1
50
0
73
2
44
1
0
MTEXT
5
4D8
100
AcDbEntity
8
Buchstaben (Siebdruck Glas Stärke 2,4mm opak schwarz)
6
ByLayer
62
256
370
-1
100
AcDbMText
10
332
20
68
30
0
40
20
41
11.2
71
5
72
1
1
L
7
wqy-unicode
210
0
220
0
230
1
50
0
73
2
44
1
0
MTEXT
5
4D9
100
AcDbEntity
8
Buchstaben (Siebdruck Glas Stärke 2,4mm opak schwarz)
6
ByLayer
62
256
370
-1
100
AcDbMText
10
365
20
68
30
0
40
20
41
11.4666666667
71
5
72
1
1
F
7
wqy-unicode
210
0
220
0
230
1
50
0
73
2
44
1
0
CIRCLE
5
4DA
100
AcDbEntity
8
Buchstaben (Siebdruck Glas Stärke 2,4mm opak schwarz)
6
ByLayer
62
256
370
-1
100
AcDbCircle
10
150.5
20
35
40
5
0
CIRCLE
5
4DB
100
AcDbEntity
8
Buchstaben (Siebdruck Glas Stärke 2,4mm opak schwarz)
6
ByLayer
62
256
370
-1
100
AcDbCircle
10
183.5
20
35
40
5
0
CIRCLE
5
4DC
100
AcDbEntity
8
Buchstaben (Siebdruck Glas Stärke 2,4mm opak schwarz)
6
ByLayer
62
256
370
-1
100
AcDbCircle
10
216.5
20
35
40
5
0
CIRCLE
5
4DD
100
AcDbEntity
8
Buchstaben (Siebdruck Glas Stärke 2,4mm opak schwarz)
6
ByLayer
62
256
370
-1
100
AcDbCircle
10
249.5
20
35
40
5
0
LINE
5
4DE
100
AcDbEntity
8
Lichtgitter (Schaumstoff schwarz)
6
ByLayer
62
256
370
-1
100
AcDbLine
10
1
20
1
11
399
21
1
0
LINE
5
4DF
100
AcDbEntity
8
Lichtgitter (Schaumstoff schwarz)
6
ByLayer
62
256
370
-1
100
AcDbLine
10
399
20
1
11
399
21
399
0
LINE
5
4E0
100
AcDbEntity
8
Lichtgitter (Schaumstoff schwarz)
6
ByLayer
62
256
370
-1
100
AcDbLine
10
399
20
399
11
1
21
399
0
LINE
5
4E1
100
AcDbEntity
8
Lichtgitter (Schaumstoff schwarz)
6
ByLayer
62
256
370
-1
100
AcDbLine
10
1
20
399
11
1
21
1
0
MTEXT
5
4E2
100
AcDbEntity
8
Buchstaben (Siebdruck Glas Stärke 2,4mm opak schwarz)
6
ByLayer
62
256
370
-1
100
AcDbMText
10
365
20
134
30
0
40
20
41
14.4888888889
71
5
72
1
1
O
7
wqy-unicode
210
0
220
0
230
1
50
0
73
2
44
1
0
MTEXT
5
4E3
100
AcDbEntity
8
Buchstaben (Siebdruck Glas Stärke 2,4mm opak schwarz)
6
ByLayer
62
256
370
-1
100
AcDbMText
10
35
20
266
30
0
40
20
41
13.6444444444
71
5
72
1
1
B
7
wqy-unicode
210
0
220
0
230
1
50
0
73
2
44
1
0
MTEXT
5
4E4
100
AcDbEntity
8
Buchstaben (Siebdruck Glas Stärke 2,4mm opak schwarz)
6
ByLayer
62
256
370
-1
100
AcDbMText
10
200
20
332
30
0
40
20
41
15.2666666667
71
5
72
1
1
X
7
wqy-unicode
210
0
220
0
230
1
50
0
73
2
44
1
0
MTEXT
5
4E5
100
AcDbEntity
8
Buchstaben (Siebdruck Glas Stärke 2,4mm opak schwarz)
6
ByLayer
62
256
370
-1
100
AcDbMText
10
365
20
266
30
0
40
20
41
13.3111111111
71
5
72
1
1
G
7
wqy-unicode
210
0
220
0
230
1
50
0
73
2
44
1
0
MTEXT
5
4E6
100
AcDbEntity
8
Buchstaben (Siebdruck Glas Stärke 2,4mm opak schwarz)
6
ByLayer
62
256
370
-1
100
AcDbMText
10
35
20
134
30
0
40
20
41
13.3111111111
71
5
72
1
1
G
7
wqy-unicode
210
0
220
0
230
1
50
0
73
2
44
1
0
MTEXT
5
4E7
100
AcDbEntity
8
Buchstaben (Siebdruck Glas Stärke 2,4mm opak schwarz)
6
ByLayer
62
256
370
-1
100
AcDbMText
10
167
20
200
30
0
40
20
41
13.3333333333
71
5
72
1
1
U
7
wqy-unicode
210
0
220
0
230
1
50
0
73
2
44
1
0
MTEXT
5
4E8
100
AcDbEntity
8
Buchstaben (Siebdruck Glas Stärke 2,4mm opak schwarz)
6
ByLayer
62
256
370
-1
100
AcDbMText
10
365
20
101
30
0
40
20
41
15.8444444444
71
5
72
1
1
V
7
wqy-unicode
210
0
220
0
230
1
50
0
73
2
44
1
0
MTEXT
5
4E9
100
AcDbEntity
8
Buchstaben (Siebdruck Glas Stärke 2,4mm opak schwarz)
6
ByLayer
62
256
370
-1
100
AcDbMText
10
35
20
233
30
0
40
20
41
14.4888888889
71
5
72
1
1
O
7
wqy-unicode
210
0
220
0
230
1
50
0
73
2
44
1
0
MTEXT
5
4EA
100
AcDbEntity
8
Buchstaben (Siebdruck Glas Stärke 2,4mm opak schwarz)
6
ByLayer
62
256
370
-1
100
AcDbMText
10
68
20
233
30
0
40
20
41
12.5111111111
71
5
72
1
1
P
7
wqy-unicode
210
0
220
0
230
1
50
0
73
2
44
1
0
MTEXT
5
4EB
100
AcDbEntity
8
Buchstaben (Siebdruck Glas Stärke 2,4mm opak schwarz)
6
ByLayer
62
256
370
-1
100
AcDbMText
10
134
20
233
30
0
40
20
41
13.4444444444
71
5
72
1
1
K
7
wqy-unicode
210
0
220
0
230
1
50
0
73
2
44
1
0
MTEXT
5
4EC
100
AcDbEntity
8
Buchstaben (Siebdruck Glas Stärke 2,4mm opak schwarz)
6
ByLayer
62
256
370
-1
100
AcDbMText
10
35
20
167
30
0
40
20
41
15.8222222222
71
5
72
1
1
Y
7
wqy-unicode
210
0
220
0
230
1
50
0
73
2
44
1
0
CIRCLE
5
4ED
100
AcDbEntity
8
Buchstaben (Siebdruck Glas Stärke 2,4mm opak schwarz)
6
ByLayer
62
256
370
-1
100
AcDbCircle
10
99
20
79
40
1.11803398875
0
CIRCLE
5
4EE
100
AcDbEntity
8
Buchstaben (Siebdruck Glas Stärke 2,4mm opak schwarz)
6
ByLayer
62
256
370
-1
100
AcDbCircle
10
103
20
79
40
1.11803398875
0
MTEXT
5
4EF
100
AcDbEntity
8
Buchstaben (Siebdruck Glas Stärke 2,4mm opak schwarz)
6
ByLayer
62
256
370
-1
100
AcDbMText
10
101
20
67.5
30
0
40
18.5
41
13.4022222222
71
5
72
1
1
O
7
wqy-unicode
210
0
220
0
230
1
50
0
73
2
44
1
0
MTEXT
5
4F0
100
AcDbEntity
8
Buchstaben (Siebdruck Glas Stärke 2,4mm opak schwarz)
6
ByLayer
62
256
370
-1
100
AcDbMText
10
68
20
331.5
30
0
40
19
41
12.6666666667
71
5
72
1
1
U
7
wqy-unicode
210
0
220
0
230
1
50
0
73
2
44
1
0
CIRCLE
5
4F1
100
AcDbEntity
8
Buchstaben (Siebdruck Glas Stärke 2,4mm opak schwarz)
6
ByLayer
62
256
370
-1
100
AcDbCircle
10
70
20
343
40
1.11803398875
0
CIRCLE
5
4F2
100
AcDbEntity
8
Buchstaben (Siebdruck Glas Stärke 2,4mm opak schwarz)
6
ByLayer
62
256
370
-1
100
AcDbCircle
10
66
20
343
40
1.11803398875
0
MTEXT
5
4F3
100
AcDbEntity
8
Buchstaben (Siebdruck Glas Stärke 2,4mm opak schwarz)
6
ByLayer
62
256
370
-1
100
AcDbMText
10
200
20
67.5
30
0
40
19
41
12.6666666667
71
5
72
1
1
U
7
wqy-unicode
210
0
220
0
230
1
50
0
73
2
44
1
0
CIRCLE
5
4F4
100
AcDbEntity
8
Buchstaben (Siebdruck Glas Stärke 2,4mm opak schwarz)
6
ByLayer
62
256
370
-1
100
AcDbCircle
10
202
20
79
40
1.11803398875
0
CIRCLE
5
4F5
100
AcDbEntity
8
Buchstaben (Siebdruck Glas Stärke 2,4mm opak schwarz)
6
ByLayer
62
256
370
-1
100
AcDbCircle
10
198
20
79
40
1.11803398875
0
MTEXT
5
4F6
100
AcDbEntity
8
Buchstaben (Siebdruck Glas Stärke 2,4mm opak schwarz)
6
ByLayer
62
256
370
-1
100
AcDbMText
10
35
20
365
30
0
40
20
41
11.4666666667
71
5
72
1
1
E
7
wqy-unicode
210
0
220
0
230
1
50
0
73
2
44
1
0
MTEXT
5
4F7
100
AcDbEntity
8
Buchstaben (Siebdruck Glas Stärke 2,4mm opak schwarz)
6
ByLayer
62
256
370
-1
100
AcDbMText
10
68
20
365
30
0
40
20
41
12.8888888889
71
5
72
1
1
S
7
wqy-unicode
210
0
220
0
230
1
50
0
73
2
44
1
0
MTEXT
5
4F8
100
AcDbEntity
8
Buchstaben (Siebdruck Glas Stärke 2,4mm opak schwarz)
6
ByLayer
62
256
370
-1
100
AcDbMText
10
101
20
365
30
0
40
20
41
13.6666666667
71
5
72
1
1
M
7
wqy-unicode
210
0
220
0
230
1
50
0
73
2
44
1
0
MTEXT
5
4F9
100
AcDbEntity
8
Buchstaben (Siebdruck Glas Stärke 2,4mm opak schwarz)
6
ByLayer
62
256
370
-1
100
AcDbMText
10
134
20
365
30
0
40
20
41
10.5777777778
71
5
72
1
1
I
7
wqy-unicode
210
0
220
0
230
1
50
0
73
2
44
1
0
MTEXT
5
4FA
100
AcDbEntity
8
Buchstaben (Siebdruck Glas Stärke 2,4mm opak schwarz)
6
ByLayer
62
256
370
-1
100
AcDbMText
10
167
20
365
30
0
40
20
41
12.8888888889
71
5
72
1
1
S
7
wqy-unicode
210
0
220
0
230
1
50
0
73
2
44
1
0
MTEXT
5
4FB
100
AcDbEntity
8
Buchstaben (Siebdruck Glas Stärke 2,4mm opak schwarz)
6
ByLayer
62
256
370
-1
100
AcDbMText
10
200
20
365
30
0
40
20
41
13.9333333333
71
5
72
1
1
T
7
wqy-unicode
210
0
220
0
230
1
50
0
73
2
44
1
0
MTEXT
5
4FC
100
AcDbEntity
8
Buchstaben (Siebdruck Glas Stärke 2,4mm opak schwarz)
6
ByLayer
62
256
370
-1
100
AcDbMText
10
233
20
365
30
0
40
20
41
12.5111111111
71
5
72
1
1
P
7
wqy-unicode
210
0
220
0
230
1
50
0
73
2
44
1
0
MTEXT
5
4FD
100
AcDbEntity
8
Buchstaben (Siebdruck Glas Stärke 2,4mm opak schwarz)
6
ByLayer
62
256
370
-1
100
AcDbMText
10
266
20
365
30
0
40
20
41
12.8888888889
71
5
72
1
1
S
7
wqy-unicode
210
0
220
0
230
1
50
0
73
2
44
1
0
MTEXT
5
4FE
100
AcDbEntity
8
Buchstaben (Siebdruck Glas Stärke 2,4mm opak schwarz)
6
ByLayer
62
256
370
-1
100
AcDbMText
10
299
20
365
30
0
40
20
41
15.8444444444
71
5
72
1
1
A
7
wqy-unicode
210
0
220
0
230
1
50
0
73
2
44
1
0
MTEXT
5
4FF
100
AcDbEntity
8
Buchstaben (Siebdruck Glas Stärke 2,4mm opak schwarz)
6
ByLayer
62
256
370
-1
100
AcDbMText
10
332
20
365
30
0
40
20
41
11.2
71
5
72
1
1
L
7
wqy-unicode
210
0
220
0
230
1
50
0
73
2
44
1
0
MTEXT
5
500
100
AcDbEntity
8
Buchstaben (Siebdruck Glas Stärke 2,4mm opak schwarz)
6
ByLayer
62
256
370
-1
100
AcDbMText
10
365
20
365
30
0
40
20
41
13.6666666667
71
5
72
1
1
M
7
wqy-unicode
210
0
220
0
230
1
50
0
73
2
44
1
0
MTEXT
5
501
100
AcDbEntity
8
Buchstaben (Siebdruck Glas Stärke 2,4mm opak schwarz)
6
ByLayer
62
256
370
-1
100
AcDbMText
10
35
20
332
30
0
40
20
41
11.4666666667
71
5
72
1
1
F
7
wqy-unicode
210
0
220
0
230
1
50
0
73
2
44
1
0
MTEXT
5
502
100
AcDbEntity
8
Buchstaben (Siebdruck Glas Stärke 2,4mm opak schwarz)
6
ByLayer
62
256
370
-1
100
AcDbMText
10
101
20
332
30
0
40
20
41
13.0444444444
71
5
72
1
1
N
7
wqy-unicode
210
0
220
0
230
1
50
0
73
2
44
1
0
MTEXT
5
503
100
AcDbEntity
8
Buchstaben (Siebdruck Glas Stärke 2,4mm opak schwarz)
6
ByLayer
62
256
370
-1
100
AcDbMText
10
134
20
332
30
0
40
20
41
11.4666666667
71
5
72
1
1
F
7
wqy-unicode
210
0
220
0
230
1
50
0
73
2
44
1
0
MTEXT
5
504
100
AcDbEntity
8
Buchstaben (Siebdruck Glas Stärke 2,4mm opak schwarz)
6
ByLayer
62
256
370
-1
100
AcDbMText
10
167
20
332
30
0
40
20
41
14.3111111111
71
5
72
1
1
C
7
wqy-unicode
210
0
220
0
230
1
50
0
73
2
44
1
0
MTEXT
5
505
100
AcDbEntity
8
Buchstaben (Siebdruck Glas Stärke 2,4mm opak schwarz)
6
ByLayer
62
256
370
-1
100
AcDbMText
10
233
20
332
30
0
40
20
41
13.9333333333
71
5
72
1
1
Z
7
wqy-unicode
210
0
220
0
230
1
50
0
73
2
44
1
0
MTEXT
5
506
100
AcDbEntity
8
Buchstaben (Siebdruck Glas Stärke 2,4mm opak schwarz)
6
ByLayer
62
256
370
-1
100
AcDbMText
10
266
20
332
30
0
40
20
41
11.4666666667
71
5
72
1
1
E
7
wqy-unicode
210
0
220
0
230
1
50
0
73
2
44
1
0
MTEXT
5
507
100
AcDbEntity
8
Buchstaben (Siebdruck Glas Stärke 2,4mm opak schwarz)
6
ByLayer
62
256
370
-1
100
AcDbMText
10
299
20
332
30
0
40
20
41
13.0666666667
71
5
72
1
1
H
7
wqy-unicode
210
0
220
0
230
1
50
0
73
2
44
1
0
MTEXT
5
508
100
AcDbEntity
8
Buchstaben (Siebdruck Glas Stärke 2,4mm opak schwarz)
6
ByLayer
62
256
370
-1
100
AcDbMText
10
332
20
332
30
0
40
20
41
13.0444444444
71
5
72
1
1
N
7
wqy-unicode
210
0
220
0
230
1
50
0
73
2
44
1
0
MTEXT
5
509
100
AcDbEntity
8
Buchstaben (Siebdruck Glas Stärke 2,4mm opak schwarz)
6
ByLayer
62
256
370
-1
100
AcDbMText
10
365
20
332
30
0
40
20
41
13.9333333333
71
5
72
1
1
T
7
wqy-unicode
210
0
220
0
230
1
50
0
73
2
44
1
0
MTEXT
5
50A
100
AcDbEntity
8
Buchstaben (Siebdruck Glas Stärke 2,4mm opak schwarz)
6
ByLayer
62
256
370
-1
100
AcDbMText
10
35
20
299
30
0
40
20
41
11.4666666667
71
5
72
1
1
J
7
wqy-unicode
210
0
220
0
230
1
50
0
73
2
44
1
0
MTEXT
5
50B
100
AcDbEntity
8
Buchstaben (Siebdruck Glas Stärke 2,4mm opak schwarz)
6
ByLayer
62
256
370
-1
100
AcDbMText
10
68
20
299
30
0
40
20
41
11.4666666667
71
5
72
1
1
E
7
wqy-unicode
210
0
220
0
230
1
50
0
73
2
44
1
0
MTEXT
5
50C
100
AcDbEntity
8
Buchstaben (Siebdruck Glas Stärke 2,4mm opak schwarz)
6
ByLayer
62
256
370
-1
100
AcDbMText
10
101
20
299
30
0
40
20
41
12.8888888889
71
5
72
1
1
S
7
wqy-unicode
210
0
220
0
230
1
50
0
73
2
44
1
0
MTEXT
5
50D
100
AcDbEntity
8
Buchstaben (Siebdruck Glas Stärke 2,4mm opak schwarz)
6
ByLayer
62
256
370
-1
100
AcDbMText
10
167
20
299
30
0
40
20
41
12.8888888889
71
5
72
1
1
S
7
wqy-unicode
210
0
220
0
230
1
50
0
73
2
44
1
0
MTEXT
5
50E
100
AcDbEntity
8
Buchstaben (Siebdruck Glas Stärke 2,4mm opak schwarz)
6
ByLayer
62
256
370
-1
100
AcDbMText
10
134
20
299
30
0
40
20
41
13.3333333333
71
5
72
1
1
U
7
wqy-unicode
210
0
220
0
230
1
50
0
73
2
44
1
0
MTEXT
5
50F
100
AcDbEntity
8
Buchstaben (Siebdruck Glas Stärke 2,4mm opak schwarz)
6
ByLayer
62
256
370
-1
100
AcDbMText
10
200
20
299
30
0
40
20
41
13.0666666667
71
5
72
1
1
H
7
wqy-unicode
210
0
220
0
230
1
50
0
73
2
44
1
0
MTEXT
5
510
100
AcDbEntity
8
Buchstaben (Siebdruck Glas Stärke 2,4mm opak schwarz)
6
ByLayer
62
256
370
-1
100
AcDbMText
10
233
20
299
30
0
40
20
41
15.8444444444
71
5
72
1
1
A
7
wqy-unicode
210
0
220
0
230
1
50
0
73
2
44
1
0
MTEXT
5
511
100
AcDbEntity
8
Buchstaben (Siebdruck Glas Stärke 2,4mm opak schwarz)
6
ByLayer
62
256
370
-1
100
AcDbMText
10
266
20
299
30
0
40
20
41
11.2
71
5
72
1
1
L
7
wqy-unicode
210
0
220
0
230
1
50
0
73
2
44
1
0
MTEXT
5
512
100
AcDbEntity
8
Buchstaben (Siebdruck Glas Stärke 2,4mm opak schwarz)
6
ByLayer
62
256
370
-1
100
AcDbMText
10
299
20
299
30
0
40
20
41
13.6444444444
71
5
72
1
1
B
7
wqy-unicode
210
0
220
0
230
1
50
0
73
2
44
1
0
MTEXT
5
513
100
AcDbEntity
8
Buchstaben (Siebdruck Glas Stärke 2,4mm opak schwarz)
6
ByLayer
62
256
370
-1
100
AcDbMText
10
332
20
299
30
0
40
20
41
13.7777777778
71
5
72
1
1
D
7
wqy-unicode
210
0
220
0
230
1
50
0
73
2
44
1
0
MTEXT
5
514
100
AcDbEntity
8
Buchstaben (Siebdruck Glas Stärke 2,4mm opak schwarz)
6
ByLayer
62
256
370
-1
100
AcDbMText
10
365
20
299
30
0
40
20
41
13.3333333333
71
5
72
1
1
U
7
wqy-unicode
210
0
220
0
230
1
50
0
73
2
44
1
0
MTEXT
5
515
100
AcDbEntity
8
Buchstaben (Siebdruck Glas Stärke 2,4mm opak schwarz)
6
ByLayer
62
256
370
-1
100
AcDbMText
10
68
20
266
30
0
40
20
41
13.9333333333
71
5
72
1
1
T
7
wqy-unicode
210
0
220
0
230
1
50
0
73
2
44
1
0
MTEXT
5
516
100
AcDbEntity
8
Buchstaben (Siebdruck Glas Stärke 2,4mm opak schwarz)
6
ByLayer
62
256
370
-1
100
AcDbMText
10
101
20
266
30
0
40
20
41
15.8444444444
71
5
72
1
1
V
7
wqy-unicode
210
0
220
0
230
1
50
0
73
2
44
1
0
MTEXT
5
517
100
AcDbEntity
8
Buchstaben (Siebdruck Glas Stärke 2,4mm opak schwarz)
6
ByLayer
62
256
370
-1
100
AcDbMText
10
134
20
266
30
0
40
20
41
10.5777777778
71
5
72
1
1
I
7
wqy-unicode
210
0
220
0
230
1
50
0
73
2
44
1
0
MTEXT
5
518
100
AcDbEntity
8
Buchstaben (Siebdruck Glas Stärke 2,4mm opak schwarz)
6
ByLayer
62
256
370
-1
100
AcDbMText
10
167
20
266
30
0
40
20
41
11.4666666667
71
5
72
1
1
E
7
wqy-unicode
210
0
220
0
230
1
50
0
73
2
44
1
0
MTEXT
5
519
100
AcDbEntity
8
Buchstaben (Siebdruck Glas Stärke 2,4mm opak schwarz)
6
ByLayer
62
256
370
-1
100
AcDbMText
10
200
20
266
30
0
40
20
41
13.4222222222
71
5
72
1
1
R
7
wqy-unicode
210
0
220
0
230
1
50
0
73
2
44
1
0
MTEXT
5
51A
100
AcDbEntity
8
Buchstaben (Siebdruck Glas Stärke 2,4mm opak schwarz)
6
ByLayer
62
256
370
-1
100
AcDbMText
10
233
20
266
30
0
40
20
41
13.9333333333
71
5
72
1
1
T
7
wqy-unicode
210
0
220
0
230
1
50
0
73
2
44
1
0
MTEXT
5
51B
100
AcDbEntity
8
Buchstaben (Siebdruck Glas Stärke 2,4mm opak schwarz)
6
ByLayer
62
256
370
-1
100
AcDbMText
10
266
20
266
30
0
40
20
41
11.4666666667
71
5
72
1
1
E
7
wqy-unicode
210
0
220
0
230
1
50
0
73
2
44
1
0
MTEXT
5
51C
100
AcDbEntity
8
Buchstaben (Siebdruck Glas Stärke 2,4mm opak schwarz)
6
ByLayer
62
256
370
-1
100
AcDbMText
10
299
20
266
30
0
40
20
41
11.2
71
5
72
1
1
L
7
wqy-unicode
210
0
220
0
230
1
50
0
73
2
44
1
0
MTEXT
5
51D
100
AcDbEntity
8
Buchstaben (Siebdruck Glas Stärke 2,4mm opak schwarz)
6
ByLayer
62
256
370
-1
100
AcDbMText
10
332
20
266
30
0
40
20
41
13.4222222222
71
5
72
1
1
R
7
wqy-unicode
210
0
220
0
230
1
50
0
73
2
44
1
0
MTEXT
5
51E
100
AcDbEntity
8
Buchstaben (Siebdruck Glas Stärke 2,4mm opak schwarz)
6
ByLayer
62
256
370
-1
100
AcDbMText
10
101
20
233
30
0
40
20
41
15.8444444444
71
5
72
1
1
A
7
wqy-unicode
210
0
220
0
230
1
50
0
73
2
44
1
0
MTEXT
5
51F
100
AcDbEntity
8
Buchstaben (Siebdruck Glas Stärke 2,4mm opak schwarz)
6
ByLayer
62
256
370
-1
100
AcDbMText
10
167
20
233
30
0
40
20
41
15.8444444444
71
5
72
1
1
V
7
wqy-unicode
210
0
220
0
230
1
50
0
73
2
44
1
0
MTEXT
5
520
100
AcDbEntity
8
Buchstaben (Siebdruck Glas Stärke 2,4mm opak schwarz)
6
ByLayer
62
256
370
-1
100
AcDbMText
10
200
20
233
30
0
40
20
41
14.4888888889
71
5
72
1
1
O
7
wqy-unicode
210
0
220
0
230
1
50
0
73
2
44
1
0
MTEXT
5
521
100
AcDbEntity
8
Buchstaben (Siebdruck Glas Stärke 2,4mm opak schwarz)
6
ByLayer
62
256
370
-1
100
AcDbMText
10
233
20
233
30
0
40
20
41
13.4222222222
71
5
72
1
1
R
7
wqy-unicode
210
0
220
0
230
1
50
0
73
2
44
1
0
MTEXT
5
522
100
AcDbEntity
8
Buchstaben (Siebdruck Glas Stärke 2,4mm opak schwarz)
6
ByLayer
62
256
370
-1
100
AcDbMText
10
266
20
233
30
0
40
20
41
13.0444444444
71
5
72
1
1
N
7
wqy-unicode
210
0
220
0
230
1
50
0
73
2
44
1
0
MTEXT
5
523
100
AcDbEntity
8
Buchstaben (Siebdruck Glas Stärke 2,4mm opak schwarz)
6
ByLayer
62
256
370
-1
100
AcDbMText
10
299
20
233
30
0
40
20
41
15.8444444444
71
5
72
1
1
A
7
wqy-unicode
210
0
220
0
230
1
50
0
73
2
44
1
0
MTEXT
5
524
100
AcDbEntity
8
Buchstaben (Siebdruck Glas Stärke 2,4mm opak schwarz)
6
ByLayer
62
256
370
-1
100
AcDbMText
10
332
20
233
30
0
40
20
41
14.3111111111
71
5
72
1
1
C
7
wqy-unicode
210
0
220
0
230
1
50
0
73
2
44
1
0
MTEXT
5
525
100
AcDbEntity
8
Buchstaben (Siebdruck Glas Stärke 2,4mm opak schwarz)
6
ByLayer
62
256
370
-1
100
AcDbMText
10
365
20
233
30
0
40
20
41
13.0666666667
71
5
72
1
1
H
7
wqy-unicode
210
0
220
0
230
1
50
0
73
2
44
1
0
MTEXT
5
526
100
AcDbEntity
8
Buchstaben (Siebdruck Glas Stärke 2,4mm opak schwarz)
6
ByLayer
62
256
370
-1
100
AcDbMText
10
35
20
200
30
0
40
20
41
15.8444444444
71
5
72
1
1
V
7
wqy-unicode
210
0
220
0
230
1
50
0
73
2
44
1
0
MTEXT
5
527
100
AcDbEntity
8
Buchstaben (Siebdruck Glas Stärke 2,4mm opak schwarz)
6
ByLayer
62
256
370
-1
100
AcDbMText
10
68
20
200
30
0
40
20
41
10.5777777778
71
5
72
1
1
I
7
wqy-unicode
210
0
220
0
230
1
50
0
73
2
44
1
0
MTEXT
5
528
100
AcDbEntity
8
Buchstaben (Siebdruck Glas Stärke 2,4mm opak schwarz)
6
ByLayer
62
256
370
-1
100
AcDbMText
10
101
20
200
30
0
40
20
41
11.4666666667
71
5
72
1
1
E
7
wqy-unicode
210
0
220
0
230
1
50
0
73
2
44
1
0
MTEXT
5
529
100
AcDbEntity
8
Buchstaben (Siebdruck Glas Stärke 2,4mm opak schwarz)
6
ByLayer
62
256
370
-1
100
AcDbMText
10
134
20
200
30
0
40
20
41
13.4222222222
71
5
72
1
1
R
7
wqy-unicode
210
0
220
0
230
1
50
0
73
2
44
1
0
MTEXT
5
52A
100
AcDbEntity
8
Buchstaben (Siebdruck Glas Stärke 2,4mm opak schwarz)
6
ByLayer
62
256
370
-1
100
AcDbMText
10
233
20
200
30
0
40
20
41
15.8444444444
71
5
72
1
1
A
7
wqy-unicode
210
0
220
0
230
1
50
0
73
2
44
1
0
MTEXT
5
52B
100
AcDbEntity
8
Buchstaben (Siebdruck Glas Stärke 2,4mm opak schwarz)
6
ByLayer
62
256
370
-1
100
AcDbMText
10
266
20
200
30
0
40
20
41
14.3111111111
71
5
72
1
1
C
7
wqy-unicode
210
0
220
0
230
1
50
0
73
2
44
1
0
MTEXT
5
52C
100
AcDbEntity
8
Buchstaben (Siebdruck Glas Stärke 2,4mm opak schwarz)
6
ByLayer
62
256
370
-1
100
AcDbMText
10
299
20
200
30
0
40
20
41
13.0666666667
71
5
72
1
1
H
7
wqy-unicode
210
0
220
0
230
1
50
0
73
2
44
1
0
MTEXT
5
52D
100
AcDbEntity
8
Buchstaben (Siebdruck Glas Stärke 2,4mm opak schwarz)
6
ByLayer
62
256
370
-1
100
AcDbMText
10
332
20
200
30
0
40
20
41
13.9333333333
71
5
72
1
1
T
7
wqy-unicode
210
0
220
0
230
1
50
0
73
2
44
1
0
MTEXT
5
52E
100
AcDbEntity
8
Buchstaben (Siebdruck Glas Stärke 2,4mm opak schwarz)
6
ByLayer
62
256
370
-1
100
AcDbMText
10
365
20
200
30
0
40
20
41
10.5777777778
71
5
72
1
1
I
7
wqy-unicode
210
0
220
0
230
1
50
0
73
2
44
1
0
MTEXT
5
52F
100
AcDbEntity
8
Buchstaben (Siebdruck Glas Stärke 2,4mm opak schwarz)
6
ByLayer
62
256
370
-1
100
AcDbMText
10
200
20
200
30
0
40
20
41
13.0444444444
71
5
72
1
1
N
7
wqy-unicode
210
0
220
0
230
1
50
0
73
2
44
1
0
MTEXT
5
530
100
AcDbEntity
8
Buchstaben (Siebdruck Glas Stärke 2,4mm opak schwarz)
6
ByLayer
62
256
370
-1
100
AcDbMText
10
68
20
167
30
0
40
20
41
13.9333333333
71
5
72
1
1
Z
7
wqy-unicode
210
0
220
0
230
1
50
0
73
2
44
1
0
MTEXT
5
531
100
AcDbEntity
8
Buchstaben (Siebdruck Glas Stärke 2,4mm opak schwarz)
6
ByLayer
62
256
370
-1
100
AcDbMText
10
101
20
167
30
0
40
20
41
16.6888888889
71
5
72
1
1
W
7
wqy-unicode
210
0
220
0
230
1
50
0
73
2
44
1
0
MTEXT
5
532
100
AcDbEntity
8
Buchstaben (Siebdruck Glas Stärke 2,4mm opak schwarz)
6
ByLayer
62
256
370
-1
100
AcDbMText
10
134
20
167
30
0
40
20
41
11.4666666667
71
5
72
1
1
E
7
wqy-unicode
210
0
220
0
230
1
50
0
73
2
44
1
0
MTEXT
5
533
100
AcDbEntity
8
Buchstaben (Siebdruck Glas Stärke 2,4mm opak schwarz)
6
ByLayer
62
256
370
-1
100
AcDbMText
10
167
20
167
30
0
40
20
41
10.5777777778
71
5
72
1
1
I
7
wqy-unicode
210
0
220
0
230
1
50
0
73
2
44
1
0
MTEXT
5
534
100
AcDbEntity
8
Buchstaben (Siebdruck Glas Stärke 2,4mm opak schwarz)
6
ByLayer
62
256
370
-1
100
AcDbMText
10
200
20
167
30
0
40
20
41
14.3111111111
71
5
72
1
1
C
7
wqy-unicode
210
0
220
0
230
1
50
0
73
2
44
1
0
MTEXT
5
535
100
AcDbEntity
8
Buchstaben (Siebdruck Glas Stärke 2,4mm opak schwarz)
6
ByLayer
62
256
370
-1
100
AcDbMText
10
233
20
167
30
0
40
20
41
13.0666666667
71
5
72
1
1
H
7
wqy-unicode
210
0
220
0
230
1
50
0
73
2
44
1
0
MTEXT
5
536
100
AcDbEntity
8
Buchstaben (Siebdruck Glas Stärke 2,4mm opak schwarz)
6
ByLayer
62
256
370
-1
100
AcDbMText
10
266
20
167
30
0
40
20
41
13.9333333333
71
5
72
1
1
Z
7
wqy-unicode
210
0
220
0
230
1
50
0
73
2
44
1
0
MTEXT
5
537
100
AcDbEntity
8
Buchstaben (Siebdruck Glas Stärke 2,4mm opak schwarz)
6
ByLayer
62
256
370
-1
100
AcDbMText
10
299
20
167
30
0
40
20
41
11.4666666667
71
5
72
1
1
E
7
wqy-unicode
210
0
220
0
230
1
50
0
73
2
44
1
0
MTEXT
5
538
100
AcDbEntity
8
Buchstaben (Siebdruck Glas Stärke 2,4mm opak schwarz)
6
ByLayer
62
256
370
-1
100
AcDbMText
10
332
20
167
30
0
40
20
41
13.0666666667
71
5
72
1
1
H
7
wqy-unicode
210
0
220
0
230
1
50
0
73
2
44
1
0
MTEXT
5
539
100
AcDbEntity
8
Buchstaben (Siebdruck Glas Stärke 2,4mm opak schwarz)
6
ByLayer
62
256
370
-1
100
AcDbMText
10
365
20
167
30
0
40
20
41
13.0444444444
71
5
72
1
1
N
7
wqy-unicode
210
0
220
0
230
1
50
0
73
2
44
1
0
MTEXT
5
53A
100
AcDbEntity
8
Buchstaben (Siebdruck Glas Stärke 2,4mm opak schwarz)
6
ByLayer
62
256
370
-1
100
AcDbMText
10
68
20
134
30
0
40
20
41
12.8888888889
71
5
72
1
1
S
7
wqy-unicode
210
0
220
0
230
1
50
0
73
2
44
1
0
MTEXT
5
53B
100
AcDbEntity
8
Buchstaben (Siebdruck Glas Stärke 2,4mm opak schwarz)
6
ByLayer
62
256
370
-1
100
AcDbMText
10
101
20
134
30
0
40
20
41
10.5777777778
71
5
72
1
1
I
7
wqy-unicode
210
0
220
0
230
1
50
0
73
2
44
1
0
MTEXT
5
53C
100
AcDbEntity
8
Buchstaben (Siebdruck Glas Stärke 2,4mm opak schwarz)
6
ByLayer
62
256
370
-1
100
AcDbMText
10
134
20
134
30
0
40
20
41
11.4666666667
71
5
72
1
1
E
7
wqy-unicode
210
0
220
0
230
1
50
0
73
2
44
1
0
MTEXT
5
53D
100
AcDbEntity
8
Buchstaben (Siebdruck Glas Stärke 2,4mm opak schwarz)
6
ByLayer
62
256
370
-1
100
AcDbMText
10
167
20
134
30
0
40
20
41
13.6444444444
71
5
72
1
1
B
7
wqy-unicode
210
0
220
0
230
1
50
0
73
2
44
1
0
MTEXT
5
53E
100
AcDbEntity
8
Buchstaben (Siebdruck Glas Stärke 2,4mm opak schwarz)
6
ByLayer
62
256
370
-1
100
AcDbMText
10
200
20
134
30
0
40
20
41
11.4666666667
71
5
72
1
1
E
7
wqy-unicode
210
0
220
0
230
1
50
0
73
2
44
1
0
MTEXT
5
53F
100
AcDbEntity
8
Buchstaben (Siebdruck Glas Stärke 2,4mm opak schwarz)
6
ByLayer
62
256
370
-1
100
AcDbMText
10
233
20
134
30
0
40
20
41
13.0444444444
71
5
72
1
1
N
7
wqy-unicode
210
0
220
0
230
1
50
0
73
2
44
1
0
MTEXT
5
540
100
AcDbEntity
8
Buchstaben (Siebdruck Glas Stärke 2,4mm opak schwarz)
6
ByLayer
62
256
370
-1
100
AcDbMText
10
332
20
134
30
0
40
20
41
13.0444444444
71
5
72
1
1
N
7
wqy-unicode
210
0
220
0
230
1
50
0
73
2
44
1
0
MTEXT
5
541
100
AcDbEntity
8
Buchstaben (Siebdruck Glas Stärke 2,4mm opak schwarz)
6
ByLayer
62
256
370
-1
100
AcDbMText
10
266
20
134
30
0
40
20
41
11.4666666667
71
5
72
1
1
E
7
wqy-unicode
210
0
220
0
230
1
50
0
73
2
44
1
0
MTEXT
5
542
100
AcDbEntity
8
Buchstaben (Siebdruck Glas Stärke 2,4mm opak schwarz)
6
ByLayer
62
256
370
-1
100
AcDbMText
10
299
20
134
30
0
40
20
41
13.3333333333
71
5
72
1
1
U
7
wqy-unicode
210
0
220
0
230
1
50
0
73
2
44
1
0
MTEXT
5
543
100
AcDbEntity
8
Buchstaben (Siebdruck Glas Stärke 2,4mm opak schwarz)
6
ByLayer
62
256
370
-1
100
AcDbMText
10
35
20
101
30
0
40
20
41
13.7777777778
71
5
72
1
1
D
7
wqy-unicode
210
0
220
0
230
1
50
0
73
2
44
1
0
MTEXT
5
544
100
AcDbEntity
8
Buchstaben (Siebdruck Glas Stärke 2,4mm opak schwarz)
6
ByLayer
62
256
370
-1
100
AcDbMText
10
68
20
101
30
0
40
20
41
13.4222222222
71
5
72
1
1
R
7
wqy-unicode
210
0
220
0
230
1
50
0
73
2
44
1
0
MTEXT
5
545
100
AcDbEntity
8
Buchstaben (Siebdruck Glas Stärke 2,4mm opak schwarz)
6
ByLayer
62
256
370
-1
100
AcDbMText
10
101
20
101
30
0
40
20
41
11.4666666667
71
5
72
1
1
E
7
wqy-unicode
210
0
220
0
230
1
50
0
73
2
44
1
0
MTEXT
5
546
100
AcDbEntity
8
Buchstaben (Siebdruck Glas Stärke 2,4mm opak schwarz)
6
ByLayer
62
256
370
-1
100
AcDbMText
10
134
20
101
30
0
40
20
41
10.5777777778
71
5
72
1
1
I
7
wqy-unicode
210
0
220
0
230
1
50
0
73
2
44
1
0
MTEXT
5
547
100
AcDbEntity
8
Buchstaben (Siebdruck Glas Stärke 2,4mm opak schwarz)
6
ByLayer
62
256
370
-1
100
AcDbMText
10
167
20
101
30
0
40
20
41
13.0444444444
71
5
72
1
1
N
7
wqy-unicode
210
0
220
0
230
1
50
0
73
2
44
1
0
MTEXT
5
548
100
AcDbEntity
8
Buchstaben (Siebdruck Glas Stärke 2,4mm opak schwarz)
6
ByLayer
62
256
370
-1
100
AcDbMText
10
200
20
101
30
0
40
20
41
12.8888888889
71
5
72
1
1
S
7
wqy-unicode
210
0
220
0
230
1
50
0
73
2
44
1
0
MTEXT
5
549
100
AcDbEntity
8
Buchstaben (Siebdruck Glas Stärke 2,4mm opak schwarz)
6
ByLayer
62
256
370
-1
100
AcDbMText
10
233
20
101
30
0
40
20
41
11.4666666667
71
5
72
1
1
E
7
wqy-unicode
210
0
220
0
230
1
50
0
73
2
44
1
0
MTEXT
5
54A
100
AcDbEntity
8
Buchstaben (Siebdruck Glas Stärke 2,4mm opak schwarz)
6
ByLayer
62
256
370
-1
100
AcDbMText
10
266
20
101
30
0
40
20
41
14.3111111111
71
5
72
1
1
C
7
wqy-unicode
210
0
220
0
230
1
50
0
73
2
44
1
0
MTEXT
5
54B
100
AcDbEntity
8
Buchstaben (Siebdruck Glas Stärke 2,4mm opak schwarz)
6
ByLayer
62
256
370
-1
100
AcDbMText
10
299
20
101
30
0
40
20
41
13.0666666667
71
5
72
1
1
H
7
wqy-unicode
210
0
220
0
230
1
50
0
73
2
44
1
0
MTEXT
5
54C
100
AcDbEntity
8
Buchstaben (Siebdruck Glas Stärke 2,4mm opak schwarz)
6
ByLayer
62
256
370
-1
100
AcDbMText
10
332
20
101
30
0
40
20
41
12.8888888889
71
5
72
1
1
S
7
wqy-unicode
210
0
220
0
230
1
50
0
73
2
44
1
0
MTEXT
5
54D
100
AcDbEntity
8
Buchstaben (Siebdruck Glas Stärke 2,4mm opak schwarz)
6
ByLayer
62
256
370
-1
100
AcDbMText
10
35
20
68
30
0
40
20
41
13.9333333333
71
5
72
1
1
Z
7
wqy-unicode
210
0
220
0
230
1
50
0
73
2
44
1
0
MTEXT
5
54E
100
AcDbEntity
8
Buchstaben (Siebdruck Glas Stärke 2,4mm opak schwarz)
6
ByLayer
62
256
370
-1
100
AcDbMText
10
68
20
68
30
0
40
20
41
16.6888888889
71
5
72
1
1
W
7
wqy-unicode
210
0
220
0
230
1
50
0
73
2
44
1
0
MTEXT
5
54F
100
AcDbEntity
8
Buchstaben (Siebdruck Glas Stärke 2,4mm opak schwarz)
6
ByLayer
62
256
370
-1
100
AcDbMText
10
134
20
68
30
0
40
20
41
11.2
71
5
72
1
1
L
7
wqy-unicode
210
0
220
0
230
1
50
0
73
2
44
1
0
MTEXT
5
550
100
AcDbEntity
8
Buchstaben (Siebdruck Glas Stärke 2,4mm opak schwarz)
6
ByLayer
62
256
370
-1
100
AcDbMText
10
167
20
68
30
0
40
20
41
11.4666666667
71
5
72
1
1
F
7
wqy-unicode
210
0
220
0
230
1
50
0
73
2
44
1
0
MTEXT
5
551
100
AcDbEntity
8
Buchstaben (Siebdruck Glas Stärke 2,4mm opak schwarz)
6
ByLayer
62
256
370
-1
100
AcDbMText
10
233
20
68
30
0
40
20
41
13.0444444444
71
5
72
1
1
N
7
wqy-unicode
210
0
220
0
230
1
50
0
73
2
44
1
0
MTEXT
5
552
100
AcDbEntity
8
Buchstaben (Siebdruck Glas Stärke 2,4mm opak schwarz)
6
ByLayer
62
256
370
-1
100
AcDbMText
10
266
20
68
30
0
40
20
41
11.4666666667
71
5
72
1
1
F
7
wqy-unicode
210
0
220
0
230
1
50
0
73
2
44
1
0
MTEXT
5
553
100
AcDbEntity
8
Buchstaben (Siebdruck Glas Stärke 2,4mm opak schwarz)
6
ByLayer
62
256
370
-1
100
AcDbMText
10
299
20
68
30
0
40
20
41
11.4666666667
71
5
72
1
1
E
7
wqy-unicode
210
0
220
0
230
1
50
0
73
2
44
1
0
MTEXT
5
554
100
AcDbEntity
8
Buchstaben (Siebdruck Glas Stärke 2,4mm opak schwarz)
6
ByLayer
62
256
370
-1
100
AcDbMText
10
332
20
68
30
0
40
20
41
11.2
71
5
72
1
1
L
7
wqy-unicode
210
0
220
0
230
1
50
0
73
2
44
1
0
MTEXT
5
555
100
AcDbEntity
8
Buchstaben (Siebdruck Glas Stärke 2,4mm opak schwarz)
6
ByLayer
62
256
370
-1
100
AcDbMText
10
365
20
68
30
0
40
20
41
11.4666666667
71
5
72
1
1
F
7
wqy-unicode
210
0
220
0
230
1
50
0
73
2
44
1
0
CIRCLE
5
556
100
AcDbEntity
8
Buchstaben (Siebdruck Glas Stärke 2,4mm opak schwarz)
6
ByLayer
62
256
370
-1
100
AcDbCircle
10
150.5
20
35
40
5
0
CIRCLE
5
557
100
AcDbEntity
8
Buchstaben (Siebdruck Glas Stärke 2,4mm opak schwarz)
6
ByLayer
62
256
370
-1
100
AcDbCircle
10
183.5
20
35
40
5
0
CIRCLE
5
558
100
AcDbEntity
8
Buchstaben (Siebdruck Glas Stärke 2,4mm opak schwarz)
6
ByLayer
62
256
370
-1
100
AcDbCircle
10
216.5
20
35
40
5
0
CIRCLE
5
559
100
AcDbEntity
8
Buchstaben (Siebdruck Glas Stärke 2,4mm opak schwarz)
6
ByLayer
62
256
370
-1
100
AcDbCircle
10
249.5
20
35
40
5
0
MTEXT
5
55A
100
AcDbEntity
8
Buchstaben (Siebdruck Glas Stärke 2,4mm opak schwarz)
6
ByLayer
62
256
370
-1
100
AcDbMText
10
365
20
134
30
0
40
20
41
14.4888888889
71
5
72
1
1
O
7
wqy-unicode
210
0
220
0
230
1
50
0
73
2
44
1
0
MTEXT
5
55B
100
AcDbEntity
8
Buchstaben (Siebdruck Glas Stärke 2,4mm opak schwarz)
6
ByLayer
62
256
370
-1
100
AcDbMText
10
35
20
266
30
0
40
20
41
13.6444444444
71
5
72
1
1
B
7
wqy-unicode
210
0
220
0
230
1
50
0
73
2
44
1
0
MTEXT
5
55C
100
AcDbEntity
8
Buchstaben (Siebdruck Glas Stärke 2,4mm opak schwarz)
6
ByLayer
62
256
370
-1
100
AcDbMText
10
200
20
332
30
0
40
20
41
15.2666666667
71
5
72
1
1
X
7
wqy-unicode
210
0
220
0
230
1
50
0
73
2
44
1
0
MTEXT
5
55D
100
AcDbEntity
8
Buchstaben (Siebdruck Glas Stärke 2,4mm opak schwarz)
6
ByLayer
62
256
370
-1
100
AcDbMText
10
365
20
266
30
0
40
20
41
13.3111111111
71
5
72
1
1
G
7
wqy-unicode
210
0
220
0
230
1
50
0
73
2
44
1
0
MTEXT
5
55E
100
AcDbEntity
8
Buchstaben (Siebdruck Glas Stärke 2,4mm opak schwarz)
6
ByLayer
62
256
370
-1
100
AcDbMText
10
35
20
134
30
0
40
20
41
13.3111111111
71
5
72
1
1
G
7
wqy-unicode
210
0
220
0
230
1
50
0
73
2
44
1
0
MTEXT
5
55F
100
AcDbEntity
8
Buchstaben (Siebdruck Glas Stärke 2,4mm opak schwarz)
6
ByLayer
62
256
370
-1
100
AcDbMText
10
167
20
200
30
0
40
20
41
13.3333333333
71
5
72
1
1
U
7
wqy-unicode
210
0
220
0
230
1
50
0
73
2
44
1
0
MTEXT
5
560
100
AcDbEntity
8
Buchstaben (Siebdruck Glas Stärke 2,4mm opak schwarz)
6
ByLayer
62
256
370
-1
100
AcDbMText
10
365
20
101
30
0
40
20
41
15.8444444444
71
5
72
1
1
V
7
wqy-unicode
210
0
220
0
230
1
50
0
73
2
44
1
0
MTEXT
5
561
100
AcDbEntity
8
Buchstaben (Siebdruck Glas Stärke 2,4mm opak schwarz)
6
ByLayer
62
256
370
-1
100
AcDbMText
10
35
20
233
30
0
40
20
41
14.4888888889
71
5
72
1
1
O
7
wqy-unicode
210
0
220
0
230
1
50
0
73
2
44
1
0
MTEXT
5
562
100
AcDbEntity
8
Buchstaben (Siebdruck Glas Stärke 2,4mm opak schwarz)
6
ByLayer
62
256
370
-1
100
AcDbMText
10
68
20
233
30
0
40
20
41
12.5111111111
71
5
72
1
1
P
7
wqy-unicode
210
0
220
0
230
1
50
0
73
2
44
1
0
MTEXT
5
563
100
AcDbEntity
8
Buchstaben (Siebdruck Glas Stärke 2,4mm opak schwarz)
6
ByLayer
62
256
370
-1
100
AcDbMText
10
134
20
233
30
0
40
20
41
13.4444444444
71
5
72
1
1
K
7
wqy-unicode
210
0
220
0
230
1
50
0
73
2
44
1
0
MTEXT
5
564
100
AcDbEntity
8
Buchstaben (Siebdruck Glas Stärke 2,4mm opak schwarz)
6
ByLayer
62
256
370
-1
100
AcDbMText
10
35
20
167
30
0
40
20
41
15.8222222222
71
5
72
1
1
Y
7
wqy-unicode
210
0
220
0
230
1
50
0
73
2
44
1
0
CIRCLE
5
565
100
AcDbEntity
8
Buchstaben (Siebdruck Glas Stärke 2,4mm opak schwarz)
6
ByLayer
62
256
370
-1
100
AcDbCircle
10
99
20
79
40
1.11803398875
0
CIRCLE
5
566
100
AcDbEntity
8
Buchstaben (Siebdruck Glas Stärke 2,4mm opak schwarz)
6
ByLayer
62
256
370
-1
100
AcDbCircle
10
103
20
79
40
1.11803398875
0
MTEXT
5
567
100
AcDbEntity
8
Buchstaben (Siebdruck Glas Stärke 2,4mm opak schwarz)
6
ByLayer
62
256
370
-1
100
AcDbMText
10
101
20
67.5
30
0
40
18.5
41
13.4022222222
71
5
72
1
1
O
7
wqy-unicode
210
0
220
0
230
1
50
0
73
2
44
1
0
MTEXT
5
568
100
AcDbEntity
8
Buchstaben (Siebdruck Glas Stärke 2,4mm opak schwarz)
6
ByLayer
62
256
370
-1
100
AcDbMText
10
68
20
331.5
30
0
40
19
41
12.6666666667
71
5
72
1
1
U
7
wqy-unicode
210
0
220
0
230
1
50
0
73
2
44
1
0
CIRCLE
5
569
100
AcDbEntity
8
Buchstaben (Siebdruck Glas Stärke 2,4mm opak schwarz)
6
ByLayer
62
256
370
-1
100
AcDbCircle
10
70
20
343
40
1.11803398875
0
CIRCLE
5
56A
100
AcDbEntity
8
Buchstaben (Siebdruck Glas Stärke 2,4mm opak schwarz)
6
ByLayer
62
256
370
-1
100
AcDbCircle
10
66
20
343
40
1.11803398875
0
MTEXT
5
56B
100
AcDbEntity
8
Buchstaben (Siebdruck Glas Stärke 2,4mm opak schwarz)
6
ByLayer
62
256
370
-1
100
AcDbMText
10
200
20
67.5
30
0
40
19
41
12.6666666667
71
5
72
1
1
U
7
wqy-unicode
210
0
220
0
230
1
50
0
73
2
44
1
0
CIRCLE
5
56C
100
AcDbEntity
8
Buchstaben (Siebdruck Glas Stärke 2,4mm opak schwarz)
6
ByLayer
62
256
370
-1
100
AcDbCircle
10
202
20
79
40
1.11803398875
0
CIRCLE
5
56D
100
AcDbEntity
8
Buchstaben (Siebdruck Glas Stärke 2,4mm opak schwarz)
6
ByLayer
62
256
370
-1
100
AcDbCircle
10
198
20
79
40
1.11803398875
0
DIMENSION
5
56E
100
AcDbEntity
8
Bemaßung (in mm)
6
ByLayer
62
256
370
-1
100
AcDbDimension
2
*D1
10
400
20
428
30
0
11
200
21
429.875
31
0
70
32
71
5
72
0
3
Standard
53
0
210
0
220
0
230
1
100
AcDbAlignedDimension
13
0
23
400
33
0
14
400
24
400
34
0
100
AcDbRotatedDimension
0
DIMENSION
5
56F
100
AcDbEntity
8
Bemaßung (in mm)
6
ByLayer
62
4
370
-1
100
AcDbDimension
2
*D2
10
-26.5
20
400
30
0
11
-28.375
21
382.5
31
0
70
32
71
5
72
0
3
Standard
53
0
210
0
220
0
230
1
100
AcDbAlignedDimension
13
35
23
365
33
0
14
35
24
400
34
0
50
90
100
AcDbRotatedDimension
0
DIMENSION
5
570
100
AcDbEntity
8
Bemaßung (in mm)
6
ByLayer
62
4
370
-1
100
AcDbDimension
2
*D3
10
-26.5
20
332
30
0
11
-28.375
21
348.5
31
0
70
32
71
5
72
0
3
Standard
53
0
210
0
220
0
230
1
100
AcDbAlignedDimension
13
35
23
365
33
0
14
35
24
332
34
0
50
90
100
AcDbRotatedDimension
0
DIMENSION
5
571
100
AcDbEntity
8
Bemaßung (in mm)
6
ByLayer
62
4
370
-1
100
AcDbDimension
2
*D4
10
-26.5
20
68
30
0
11
-28.375
21
51.5
31
0
70
32
71
5
72
0
3
Standard
53
0
210
0
220
0
230
1
100
AcDbAlignedDimension
13
150.5
23
35
33
0
14
35
24
68
34
0
50
90
100
AcDbRotatedDimension
0
DIMENSION
5
572
100
AcDbEntity
8
Bemaßung (in mm)
6
ByLayer
62
4
370
-1
100
AcDbDimension
2
*D5
10
-26.5
20
2.16762483449e-14
30
0
11
-28.375
21
17.5
31
0
70
32
71
5
72
0
3
Standard
53
0
210
0
220
0
230
1
100
AcDbAlignedDimension
13
150.5
23
35
33
0
14
150.5
24
0
34
0
50
90
100
AcDbRotatedDimension
0
DIMENSION
5
573
100
AcDbEntity
8
Bemaßung (in mm)
6
ByLayer
62
4
370
-1
100
AcDbDimension
2
*D6
10
249.5
20
-29.5
30
0
11
233
21
-27.625
31
0
70
32
71
5
72
0
3
Standard
53
0
210
0
220
0
230
1
100
AcDbAlignedDimension
13
216.5
23
35
33
0
14
249.5
24
35
34
0
100
AcDbRotatedDimension
0
DIMENSION
5
574
100
AcDbEntity
8
Bemaßung (in mm)
6
ByLayer
62
4
370
-1
100
AcDbDimension
2
*D7
10
400
20
-29.5
30
0
11
324.75
21
-27.625
31
0
70
32
71
5
72
0
3
Standard
53
0
210
0
220
0
230
1
100
AcDbAlignedDimension
13
249.5
23
35
33
0
14
400
24
35
34
0
100
AcDbRotatedDimension
0
DIMENSION
5
575
100
AcDbEntity
8
Bemaßung (in mm)
6
ByLayer
62
4
370
-1
100
AcDbDimension
2
*D8
10
400
20
-21
30
0
11
382.5
21
-19.125
31
0
70
32
71
5
72
0
3
Standard
53
0
210
0
220
0
230
1
100
AcDbAlignedDimension
13
365
23
68
33
0
14
400
24
68
34
0
100
AcDbRotatedDimension
0
DIMENSION
5
576
100
AcDbEntity
8
Bemaßung (in mm)
6
ByLayer
62
4
370
-1
100
AcDbDimension
2
*D9
10
365
20
-21
30
0
11
348.5
21
-19.125
31
0
70
32
71
5
72
0
3
Standard
53
0
210
0
220
0
230
1
100
AcDbAlignedDimension
13
332
23
68
33
0
14
365
24
68
34
0
100
AcDbRotatedDimension
0
DIMENSION
5
577
100
AcDbEntity
8
Bemaßung (in mm)
6
ByLayer
62
216
420
8388736
370
-1
100
AcDbDimension
2
*D10
10
429.5
20
399
30
0
11
427.625
21
200
31
0
70
32
71
5
72
0
3
Standard
53
0
210
0
220
0
230
1
100
AcDbAlignedDimension
13
399
23
1
33
0
14
399
24
399
34
0
50
90
100
AcDbRotatedDimension
0
DIMENSION
5
578
100
AcDbEntity
8
Bemaßung (in mm)
6
ByLayer
62
216
420
8388736
370
-1
100
AcDbDimension
2
*D11
10
-26.5
20
181
30
0
11
-28.375
21
167
31
0
70
32
71
5
72
0
3
Standard
53
0
210
0
220
0
230
1
100
AcDbAlignedDimension
13
21
23
153
33
0
14
21
24
181
34
0
50
90
100
AcDbRotatedDimension
0
DIMENSION
5
579
100
AcDbEntity
8
Bemaßung (in mm)
6
ByLayer
62
216
420
8388736
370
-1
100
AcDbDimension
2
*D12
10
-26.5
20
186
30
0
11
-28.375
21
183.5
31
0
70
32
71
5
72
0
3
Standard
53
0
210
0
220
0
230
1
100
AcDbAlignedDimension
13
21
23
181
33
0
14
21
24
186
34
0
50
90
100
AcDbRotatedDimension
0
DIMENSION
5
57A
100
AcDbEntity
8
Bemaßung (in mm)
6
ByLayer
62
216
420
8388736
370
-1
100
AcDbDimension
2
*D13
10
197.5
20
-29.5
30
0
11
200
21
-27.625
31
0
70
32
71
5
72
0
3
Standard
53
0
210
0
220
0
230
1
100
AcDbAlignedDimension
13
202.5
23
21
33
0
14
197.5
24
21
34
0
100
AcDbRotatedDimension
0
DIMENSION
5
57B
100
AcDbEntity
8
Bemaßung (in mm)
6
ByLayer
62
216
420
8388736
370
-1
100
AcDbDimension
2
*D14
10
169.5
20
-29.5
30
0
11
183.5
21
-27.625
31
0
70
32
71
5
72
0
3
Standard
53
0
210
0
220
0
230
1
100
AcDbAlignedDimension
13
197.5
23
21
33
0
14
169.5
24
21
34
0
100
AcDbRotatedDimension
0
DIMENSION
5
57C
100
AcDbEntity
8
Bemaßung (in mm)
6
ByLayer
62
216
420
8388736
370
-1
100
AcDbDimension
2
*D15
10
136.5
20
-29.5
30
0
11
128.25
21
-27.625
31
0
70
32
71
5
72
0
3
Standard
53
0
210
0
220
0
230
1
100
AcDbAlignedDimension
13
120
23
54
33
0
14
136.5
24
21
34
0
100
AcDbRotatedDimension
0
DIMENSION
5
57D
100
AcDbEntity
8
Bemaßung (in mm)
6
ByLayer
62
253
420
10526884
370
-1
100
AcDbDimension
2
*D16
10
3
20
423
30
0
11
200
21
424.875
31
0
70
32
71
5
72
0
3
Standard
53
0
210
0
220
0
230
1
100
AcDbAlignedDimension
13
397
23
397
33
0
14
3
24
397
34
0
100
AcDbRotatedDimension
0
DIMENSION
5
57E
100
AcDbEntity
8
Bemaßung (in mm)
6
ByLayer
62
253
420
10526884
370
-1
100
AcDbDimension
2
*D17
10
-6.5
20
433
30
0
11
200
21
434.875
31
0
70
32
71
5
72
0
3
Standard
53
0
210
0
220
0
230
1
100
AcDbAlignedDimension
13
406.5
23
406.5
33
0
14
-6.5
24
406.5
34
0
100
AcDbRotatedDimension
0
LINE
5
57F
100
AcDbEntity
8
HALBE Magnetrahmen Alu 8 (Draufsicht)
6
CONTINUOUS
62
256
370
-1
100
AcDbLine
10
406.5
20
406.5
11
-6.5
21
406.5
0
LINE
5
580
100
AcDbEntity
8
HALBE Magnetrahmen Alu 8 (Draufsicht)
6
CONTINUOUS
62
256
370
-1
100
AcDbLine
10
397
20
397
11
3
21
397
0
LINE
5
581
100
AcDbEntity
8
HALBE Magnetrahmen Alu 8 (Draufsicht)
6
CONTINUOUS
62
256
370
-1
100
AcDbLine
10
406.5
20
-6.5
11
406.5
21
406.5
0
LINE
5
582
100
AcDbEntity
8
HALBE Magnetrahmen Alu 8 (Draufsicht)
6
CONTINUOUS
62
256
370
-1
100
AcDbLine
10
397
20
3
11
397
21
397
0
LINE
5
583
100
AcDbEntity
8
HALBE Magnetrahmen Alu 8 (Draufsicht)
6
CONTINUOUS
62
256
370
-1
100
AcDbLine
10
3
20
3
11
397
21
3
0
LINE
5
584
100
AcDbEntity
8
HALBE Magnetrahmen Alu 8 (Draufsicht)
6
CONTINUOUS
62
256
370
-1
100
AcDbLine
10
-6.5
20
-6.5
11
406.5
21
-6.5
0
LINE
5
585
100
AcDbEntity
8
HALBE Magnetrahmen Alu 8 (Draufsicht)
6
CONTINUOUS
62
256
370
-1
100
AcDbLine
10
-6.5
20
406.5
11
-6.5
21
-6.5
0
LINE
5
586
100
AcDbEntity
8
HALBE Magnetrahmen Alu 8 (Draufsicht)
6
CONTINUOUS
62
256
370
-1
100
AcDbLine
10
3
20
397
11
3
21
3
0
ENDSEC
0
SECTION
2
OBJECTS
0
DICTIONARY
5
C
330
0
100
AcDbDictionary
281
1
3
ACAD_GROUP
350
D
0
DICTIONARY
5
D
330
C
100
AcDbDictionary
281
1
0
ENDSEC
0
EOF
